  0
SECTION
  2
HEADER
  9
$ACADVER
  1
AC1015
  9
$ACADMAINTVER
 70
    20
  9
$DWGCODEPAGE
  3
ANSI_936
  9
$INSBASE
 10
0.0
 20
0.0
 30
0.0
  9
$EXTMIN
 10
1559.851423327048
 20
69.90989407824236
 30
0.0
  9
$EXTMAX
 10
1757.268646724667
 20
200.2198422156519
 30
0.0
  9
$LIMMIN
 10
0.0
 20
0.0
  9
$LIMMAX
 10
12.0
 20
9.0
  9
$ORTHOMODE
 70
     1
  9
$REGENMODE
 70
     1
  9
$FILLMODE
 70
     1
  9
$QTEXTMODE
 70
     0
  9
$MIRRTEXT
 70
     0
  9
$LTSCALE
 40
1.0
  9
$ATTMODE
 70
     1
  9
$TEXTSIZE
 40
0.2
  9
$TRACEWID
 40
0.05
  9
$TEXTSTYLE
  7
STANDARD
  9
$CLAYER
  8
标注线
  9
$CELTYPE
  6
ByLayer
  9
$CECOLOR
 62
   256
  9
$CELTSCALE
 40
1.0
  9
$DISPSILH
 70
     0
  9
$DIMSCALE
 40
1.0
  9
$DIMASZ
 40
0.65
  9
$DIMEXO
 40
0.88
  9
$DIMDLI
 40
0.015
  9
$DIMRND
 40
0.0
  9
$DIMDLE
 40
0.0
  9
$DIMEXE
 40
0.32
  9
$DIMTP
 40
0.0
  9
$DIMTM
 40
0.0
  9
$DIMTXT
 40
0.65
  9
$DIMCEN
 40
0.09
  9
$DIMTSZ
 40
0.0
  9
$DIMTOL
 70
     0
  9
$DIMLIM
 70
     0
  9
$DIMTIH
 70
     0
  9
$DIMTOH
 70
     0
  9
$DIMSE1
 70
     0
  9
$DIMSE2
 70
     0
  9
$DIMTAD
 70
     0
  9
$DIMZIN
 70
     8
  9
$DIMBLK
  1

  9
$DIMASO
 70
     1
  9
$DIMSHO
 70
     1
  9
$DIMPOST
  1
"
  9
$DIMAPOST
  1
"
  9
$DIMALT
 70
     0
  9
$DIMALTD
 70
     1
  9
$DIMALTF
 40
0.03937
  9
$DIMLFAC
 40
1.0
  9
$DIMTOFL
 70
     1
  9
$DIMTVP
 40
0.0
  9
$DIMTIX
 70
     0
  9
$DIMSOXD
 70
     0
  9
$DIMSAH
 70
     0
  9
$DIMBLK1
  1

  9
$DIMBLK2
  1

  9
$DIMSTYLE
  2
副本STANDARD
  9
$DIMCLRD
 70
   256
  9
$DIMCLRE
 70
   256
  9
$DIMCLRT
 70
   256
  9
$DIMTFAC
 40
1.0
  9
$DIMGAP
 40
0.3
  9
$DIMJUST
 70
     0
  9
$DIMSD1
 70
     0
  9
$DIMSD2
 70
     0
  9
$DIMTOLJ
 70
     1
  9
$DIMTZIN
 70
     8
  9
$DIMALTZ
 70
     8
  9
$DIMALTTZ
 70
     8
  9
$DIMUPT
 70
     0
  9
$DIMDEC
 70
     3
  9
$DIMTDEC
 70
     3
  9
$DIMALTU
 70
     2
  9
$DIMALTTD
 70
     1
  9
$DIMTXSTY
  7
STANDARD
  9
$DIMAUNIT
 70
     0
  9
$DIMADEC
 70
     0
  9
$DIMALTRND
 40
0.0
  9
$DIMAZIN
 70
     0
  9
$DIMDSEP
 70
    46
  9
$DIMATFIT
 70
     3
  9
$DIMFRAC
 70
     2
  9
$DIMLDRBLK
  1

  9
$DIMLUNIT
 70
     5
  9
$DIMLWD
 70
    -2
  9
$DIMLWE
 70
    -2
  9
$DIMTMOVE
 70
     2
  9
$LUNITS
 70
     2
  9
$LUPREC
 70
     4
  9
$SKETCHINC
 40
0.1
  9
$FILLETRAD
 40
0.0
  9
$AUNITS
 70
     0
  9
$AUPREC
 70
     0
  9
$MENU
  1
.
  9
$ELEVATION
 40
0.0
  9
$PELEVATION
 40
0.0
  9
$THICKNESS
 40
0.0
  9
$LIMCHECK
 70
     0
  9
$CHAMFERA
 40
0.0
  9
$CHAMFERB
 40
0.0
  9
$CHAMFERC
 40
0.0
  9
$CHAMFERD
 40
0.0
  9
$SKPOLY
 70
     0
  9
$TDCREATE
 40
2455434.724808658
  9
$TDUCREATE
 40
2455434.391475324
  9
$TDUPDATE
 40
2458649.679345660
  9
$TDUUPDATE
 40
2458649.346012327
  9
$TDINDWG
 40
0.8212653125
  9
$TDUSRTIMER
 40
0.8212474190
  9
$USRTIMER
 70
     1
  9
$ANGBASE
 50
0.0
  9
$ANGDIR
 70
     0
  9
$PDMODE
 70
     0
  9
$PDSIZE
 40
0.0
  9
$PLINEWID
 40
0.0
  9
$SPLFRAME
 70
     0
  9
$SPLINETYPE
 70
     6
  9
$SPLINESEGS
 70
     8
  9
$HANDSEED
  5
993A
  9
$SURFTAB1
 70
     6
  9
$SURFTAB2
 70
     6
  9
$SURFTYPE
 70
     6
  9
$SURFU
 70
     6
  9
$SURFV
 70
     6
  9
$UCSBASE
  2

  9
$UCSNAME
  2

  9
$UCSORG
 10
0.0
 20
0.0
 30
0.0
  9
$UCSXDIR
 10
1.0
 20
0.0
 30
0.0
  9
$UCSYDIR
 10
0.0
 20
1.0
 30
0.0
  9
$UCSORTHOREF
  2

  9
$UCSORTHOVIEW
 70
     0
  9
$UCSORGTOP
 10
0.0
 20
0.0
 30
0.0
  9
$UCSORGBOTTOM
 10
0.0
 20
0.0
 30
0.0
  9
$UCSORGLEFT
 10
0.0
 20
0.0
 30
0.0
  9
$UCSORGRIGHT
 10
0.0
 20
0.0
 30
0.0
  9
$UCSORGFRONT
 10
0.0
 20
0.0
 30
0.0
  9
$UCSORGBACK
 10
0.0
 20
0.0
 30
0.0
  9
$PUCSBASE
  2

  9
$PUCSNAME
  2

  9
$PUCSORG
 10
0.0
 20
0.0
 30
0.0
  9
$PUCSXDIR
 10
1.0
 20
0.0
 30
0.0
  9
$PUCSYDIR
 10
0.0
 20
1.0
 30
0.0
  9
$PUCSORTHOREF
  2

  9
$PUCSORTHOVIEW
 70
     0
  9
$PUCSORGTOP
 10
0.0
 20
0.0
 30
0.0
  9
$PUCSORGBOTTOM
 10
0.0
 20
0.0
 30
0.0
  9
$PUCSORGLEFT
 10
0.0
 20
0.0
 30
0.0
  9
$PUCSORGRIGHT
 10
0.0
 20
0.0
 30
0.0
  9
$PUCSORGFRONT
 10
0.0
 20
0.0
 30
0.0
  9
$PUCSORGBACK
 10
0.0
 20
0.0
 30
0.0
  9
$USERI1
 70
     0
  9
$USERI2
 70
     0
  9
$USERI3
 70
     0
  9
$USERI4
 70
     0
  9
$USERI5
 70
     0
  9
$USERR1
 40
0.0
  9
$USERR2
 40
0.0
  9
$USERR3
 40
0.0
  9
$USERR4
 40
0.0
  9
$USERR5
 40
2.5
  9
$WORLDVIEW
 70
     1
  9
$SHADEDGE
 70
     3
  9
$SHADEDIF
 70
    70
  9
$TILEMODE
 70
     1
  9
$MAXACTVP
 70
    64
  9
$PINSBASE
 10
0.0
 20
0.0
 30
0.0
  9
$PLIMCHECK
 70
     0
  9
$PEXTMIN
 10
1.000000000000000E+20
 20
1.000000000000000E+20
 30
1.000000000000000E+20
  9
$PEXTMAX
 10
-1.000000000000000E+20
 20
-1.000000000000000E+20
 30
-1.000000000000000E+20
  9
$PLIMMIN
 10
0.0
 20
0.0
  9
$PLIMMAX
 10
12.0
 20
9.0
  9
$UNITMODE
 70
     0
  9
$VISRETAIN
 70
     1
  9
$PLINEGEN
 70
     0
  9
$PSLTSCALE
 70
     1
  9
$TREEDEPTH
 70
  3020
  9
$CMLSTYLE
  2
Standard
  9
$CMLJUST
 70
     0
  9
$CMLSCALE
 40
1.0
  9
$PROXYGRAPHICS
 70
     1
  9
$MEASUREMENT
 70
     0
  9
$CELWEIGHT
370
    -1
  9
$ENDCAPS
280
     0
  9
$JOINSTYLE
280
     0
  9
$LWDISPLAY
290
     0
  9
$INSUNITS
 70
     0
  9
$HYPERLINKBASE
  1

  9
$STYLESHEET
  1

  9
$XEDIT
290
     1
  9
$CEPSNTYPE
380
     0
  9
$PSTYLEMODE
290
     1
  9
$FINGERPRINTGUID
  2
{7BAC09DB-C4D0-41DB-8C07-4C6808ADD930}
  9
$VERSIONGUID
  2
{F5FA12FB-C5F1-4DF6-B355-7ADCF9A25F90}
  9
$EXTNAMES
290
     1
  9
$PSVPSCALE
 40
0.0
  9
$OLESTARTUP
290
     0
  0
ENDSEC
  0
SECTION
  2
CLASSES
  0
CLASS
  1
ACDBDICTIONARYWDFLT
  2
AcDbDictionaryWithDefault
  3
ObjectDBX Classes
 90
        0
280
     0
281
     0
  0
CLASS
  1
MATERIAL
  2
AcDbMaterial
  3
ObjectDBX Classes
 90
     1153
280
     0
281
     0
  0
CLASS
  1
VISUALSTYLE
  2
AcDbVisualStyle
  3
ObjectDBX Classes
 90
     4095
280
     0
281
     0
  0
CLASS
  1
SCALE
  2
AcDbScale
  3
ObjectDBX Classes
 90
     1153
280
     0
281
     0
  0
CLASS
  1
TABLESTYLE
  2
AcDbTableStyle
  3
ObjectDBX Classes
 90
     4095
280
     0
281
     0
  0
CLASS
  1
MLEADERSTYLE
  2
AcDbMLeaderStyle
  3
ACDB_MLEADERSTYLE_CLASS
 90
     4095
280
     0
281
     0
  0
CLASS
  1
VLO-VL
  2
vlo_VL
  3
VL|AutoLISP based application
 90
      129
280
     0
281
     0
  0
CLASS
  1
DICTIONARYVAR
  2
AcDbDictionaryVar
  3
ObjectDBX Classes
 90
        0
280
     0
281
     0
  0
CLASS
  1
CELLSTYLEMAP
  2
AcDbCellStyleMap
  3
ObjectDBX Classes
 90
     1152
280
     0
281
     0
  0
CLASS
  1
DIMASSOC
  2
AcDbDimAssoc
  3
"AcDbDimAssoc|Product Desc:     AcDim ARX App For Dimension|Company:          Autodesk, Inc.|WEB Address:      www.autodesk.com"
 90
        0
280
     0
281
     0
  0
CLASS
  1
SORTENTSTABLE
  2
AcDbSortentsTable
  3
ObjectDBX Classes
 90
        0
280
     0
281
     0
  0
CLASS
  1
ACDBPLACEHOLDER
  2
AcDbPlaceHolder
  3
ObjectDBX Classes
 90
        0
280
     0
281
     0
  0
CLASS
  1
LAYOUT
  2
AcDbLayout
  3
ObjectDBX Classes
 90
        0
280
     0
281
     0
  0
CLASS
  1
IMAGEDEF
  2
AcDbRasterImageDef
  3
ISM
 90
    32768
280
     0
281
     0
  0
CLASS
  1
RASTERVARIABLES
  2
AcDbRasterVariables
  3
ISM
 90
        0
280
     0
281
     0
  0
ENDSEC
  0
SECTION
  2
TABLES
  0
TABLE
  2
VPORT
  5
5F02
330
0
100
AcDbSymbolTable
 70
     1
  0
VPORT
  5
5F73
330
5F02
100
AcDbSymbolTableRecord
100
AcDbViewportTableRecord
  2
*ACTIVE
 70
     0
 10
0.0
 20
0.0
 11
1.0
 21
1.0
 12
1680.573678823922
 22
118.7034827672666
 13
0.0
 23
0.0
 14
0.5
 24
0.5
 15
0.5
 25
0.5
 16
0.0
 26
0.0
 36
1.0
 17
0.0
 27
0.0
 37
0.0
 40
134.835480790349
 41
1.622972972972972
 42
50.0
 43
0.0
 44
0.0
 50
0.0
 51
0.0
 71
     0
 72
  1000
 73
     1
 74
     3
 75
     0
 76
     0
 77
     0
 78
     0
281
     0
 65
     1
110
0.0
120
0.0
130
0.0
111
1.0
121
0.0
131
0.0
112
0.0
122
1.0
132
0.0
 79
     0
146
0.0
  0
ENDTAB
  0
TABLE
  2
LTYPE
  5
5EFF
330
0
100
AcDbSymbolTable
 70
     5
  0
LTYPE
  5
5F5C
330
5EFF
100
AcDbSymbolTableRecord
100
AcDbLinetypeTableRecord
  2
ByBlock
 70
     0
  3

 72
    65
 73
     0
 40
0.0
  0
LTYPE
  5
5F5D
330
5EFF
100
AcDbSymbolTableRecord
100
AcDbLinetypeTableRecord
  2
ByLayer
 70
     0
  3

 72
    65
 73
     0
 40
0.0
  0
LTYPE
  5
5F5E
330
5EFF
100
AcDbSymbolTableRecord
100
AcDbLinetypeTableRecord
  2
CONTINUOUS
 70
     0
  3
Solid line
 72
    65
 73
     0
 40
0.0
  0
LTYPE
  5
5F74
330
5EFF
100
AcDbSymbolTableRecord
100
AcDbLinetypeTableRecord
  2
CENTER2
 70
     0
  3
Center (.5x) ___ _ ___ _ ___ _ ___ _ ___ _ ___
 72
    65
 73
     4
 40
28.575
 49
19.05
 74
     0
 49
-3.174999999999998
 74
     0
 49
3.174999999999998
 74
     0
 49
-3.174999999999998
 74
     0
  0
LTYPE
  5
5F75
330
5EFF
100
AcDbSymbolTableRecord
100
AcDbLinetypeTableRecord
  2
HIDDEN2
 70
     0
  3
Hidden (.5x) _ _ _ _ _ _ _ _ _ _ _ _ _ _ _ _ _
 72
    65
 73
     2
 40
4.762499999999998
 49
3.174999999999998
 74
     0
 49
-1.587499999999999
 74
     0
  0
LTYPE
  5
88C9
330
5EFF
100
AcDbSymbolTableRecord
100
AcDbLinetypeTableRecord
  2
ACAD_ISO02W100
 70
     0
  3
ISO dash __ __ __ __ __ __ __ __ __ __ __ __ __
 72
    65
 73
     2
 40
15.0
 49
12.0
 74
     0
 49
-3.0
 74
     0
  0
ENDTAB
  0
TABLE
  2
LAYER
  5
5EFC
102
{ACAD_XDICTIONARY
360
61B7
102
}
330
0
100
AcDbSymbolTable
 70
     9
  0
LAYER
  5
5F56
102
{ACAD_XDICTIONARY
360
60F4
102
}
330
5EFC
100
AcDbSymbolTableRecord
100
AcDbLayerTableRecord
  2
0
 70
     0
 62
     7
  6
CONTINUOUS
370
    -3
390
5F09
  0
LAYER
  5
5F72
102
{ACAD_XDICTIONARY
360
60F6
102
}
330
5EFC
100
AcDbSymbolTableRecord
100
AcDbLayerTableRecord
  2
标注
 70
     0
 62
    80
  6
CONTINUOUS
370
    -3
390
5F09
  0
LAYER
  5
5F7D
102
{ACAD_XDICTIONARY
360
60F8
102
}
330
5EFC
100
AcDbSymbolTableRecord
100
AcDbLayerTableRecord
  2
中心线
 70
     0
 62
     1
  6
CENTER2
370
    -3
390
5F09
  0
LAYER
  5
5F7E
102
{ACAD_XDICTIONARY
360
60FA
102
}
330
5EFC
100
AcDbSymbolTableRecord
100
AcDbLayerTableRecord
  2
虚线
 70
     0
 62
     4
  6
HIDDEN2
370
    -3
390
5F09
  0
LAYER
  5
5F7F
330
5EFC
100
AcDbSymbolTableRecord
100
AcDbLayerTableRecord
  2
DEFPOINTS
 70
     0
 62
     7
  6
CONTINUOUS
290
     0
370
    -3
390
5F09
  0
LAYER
  5
5F80
102
{ACAD_XDICTIONARY
360
60FC
102
}
330
5EFC
100
AcDbSymbolTableRecord
100
AcDbLayerTableRecord
  2
细实线
 70
     0
 62
     7
  6
CONTINUOUS
370
    -3
390
5F09
  0
LAYER
  5
6B9C
102
{ACAD_XDICTIONARY
360
6B9D
102
}
330
5EFC
100
AcDbSymbolTableRecord
100
AcDbLayerTableRecord
  2
截面层
 70
     0
 62
     6
  6
CONTINUOUS
370
    13
390
5F09
  0
LAYER
  5
776F
330
5EFC
100
AcDbSymbolTableRecord
100
AcDbLayerTableRecord
  2
标注线
 70
     0
 62
     3
  6
CONTINUOUS
370
     9
390
5F09
  0
LAYER
  5
901B
330
5EFC
100
AcDbSymbolTableRecord
100
AcDbLayerTableRecord
  2
剖面线
 70
     0
 62
   200
  6
CONTINUOUS
370
    20
390
5F09
  0
ENDTAB
  0
TABLE
  2
STYLE
  5
5EFD
330
0
100
AcDbSymbolTable
 70
     2
  0
STYLE
  5
5F57
330
5EFD
100
AcDbSymbolTableRecord
100
AcDbTextStyleTableRecord
  2
STANDARD
 70
     0
 40
0.0
 41
1.0
 50
0.0
 71
     0
 42
0.2
  3
arial.ttf
  4

1001
ACAD
1000
Arial
1071
       34
  0
STYLE
  5
7201
330
5EFD
100
AcDbSymbolTableRecord
100
AcDbTextStyleTableRecord
  2
Arial
 70
     0
 40
0.0
 41
1.0
 50
0.0
 71
     0
 42
0.2
  3
arial.ttf
  4

1001
ACAD
1000
Arial
1071
       34
  0
ENDTAB
  0
TABLE
  2
VIEW
  5
5F00
330
0
100
AcDbSymbolTable
 70
     0
  0
ENDTAB
  0
TABLE
  2
UCS
  5
5F01
330
0
100
AcDbSymbolTable
 70
     0
  0
ENDTAB
  0
TABLE
  2
APPID
  5
5F03
330
0
100
AcDbSymbolTable
 70
    29
  0
APPID
  5
5F58
330
5F03
100
AcDbSymbolTableRecord
100
AcDbRegAppTableRecord
  2
ACAD
 70
     0
  0
APPID
  5
5F5F
330
5F03
100
AcDbSymbolTableRecord
100
AcDbRegAppTableRecord
  2
ACADANNOTATIVE
 70
     0
  0
APPID
  5
5F69
330
5F03
100
AcDbSymbolTableRecord
100
AcDbRegAppTableRecord
  2
ACAD_MLEADERVER
 70
     0
  0
APPID
  5
5F84
330
5F03
100
AcDbSymbolTableRecord
100
AcDbRegAppTableRecord
  2
ACAECLAYERSTANDARD
 70
     0
  0
APPID
  5
5F85
330
5F03
100
AcDbSymbolTableRecord
100
AcDbRegAppTableRecord
  2
ACAD_DSTYLE_DIMEXT_LENGTH
 70
     0
  0
APPID
  5
5F86
330
5F03
100
AcDbSymbolTableRecord
100
AcDbRegAppTableRecord
  2
ACAD_DSTYLE_DIMEXT_ENABLED
 70
     0
  0
APPID
  5
5F87
330
5F03
100
AcDbSymbolTableRecord
100
AcDbRegAppTableRecord
  2
ACAD_DSTYLE_DIMJOGGED_JOGA
 70
     0
  0
APPID
  5
5F88
330
5F03
100
AcDbSymbolTableRecord
100
AcDbRegAppTableRecord
  2
ACAD_DSTYLE_DIMARC_LENGTH_
 70
     0
  0
APPID
  5
5F89
330
5F03
100
AcDbSymbolTableRecord
100
AcDbRegAppTableRecord
  2
ACAD_PSEXT
 70
     0
  0
APPID
  5
5F8A
330
5F03
100
AcDbSymbolTableRecord
100
AcDbRegAppTableRecord
  2
MCAD_NO_VIS
 70
     0
  0
APPID
  5
5F8B
330
5F03
100
AcDbSymbolTableRecord
100
AcDbRegAppTableRecord
  2
ACAD_TEMP_GRAPHIC
 70
     0
  0
APPID
  5
5F8C
330
5F03
100
AcDbSymbolTableRecord
100
AcDbRegAppTableRecord
  2
AD_DRAW
 70
     0
  0
APPID
  5
5F8D
330
5F03
100
AcDbSymbolTableRecord
100
AcDbRegAppTableRecord
  2
ACATTRIBSERVICES
 70
     0
  0
APPID
  5
5F8E
330
5F03
100
AcDbSymbolTableRecord
100
AcDbRegAppTableRecord
  2
DESIGNERASSEMBLIES
 70
     0
  0
APPID
  5
5F8F
330
5F03
100
AcDbSymbolTableRecord
100
AcDbRegAppTableRecord
  2
ACADM_DIM_EDIT
 70
     0
  0
APPID
  5
5F90
330
5F03
100
AcDbSymbolTableRecord
100
AcDbRegAppTableRecord
  2
AMDT_DM_ADJ
 70
     0
  0
APPID
  5
5F91
330
5F03
100
AcDbSymbolTableRecord
100
AcDbRegAppTableRecord
  2
ACAD_DSTYLE_DIMJAG
 70
     0
  0
APPID
  5
5F92
330
5F03
100
AcDbSymbolTableRecord
100
AcDbRegAppTableRecord
  2
ACAD_DSTYLE_DIMBREAK
 70
     0
  0
APPID
  5
5F93
330
5F03
100
AcDbSymbolTableRecord
100
AcDbRegAppTableRecord
  2
ACAD_DSTYLE_DIMTALN
 70
     0
  0
APPID
  5
5F94
330
5F03
100
AcDbSymbolTableRecord
100
AcDbRegAppTableRecord
  2
GENIUS_GENODEF_13
 70
     0
  0
APPID
  5
5F95
330
5F03
100
AcDbSymbolTableRecord
100
AcDbRegAppTableRecord
  2
GENIUS_GENOBJ-N-FIL_13
 70
     0
  0
APPID
  5
5F96
330
5F03
100
AcDbSymbolTableRecord
100
AcDbRegAppTableRecord
  2
ACAD_EXEMPT_FROM_CAD_STANDARDS
 70
     0
  0
APPID
  5
5F97
330
5F03
100
AcDbSymbolTableRecord
100
AcDbRegAppTableRecord
  2
ACAD_DSTYLE_DIM_LINETYPE
 70
     0
  0
APPID
  5
5F98
330
5F03
100
AcDbSymbolTableRecord
100
AcDbRegAppTableRecord
  2
ACAD_DSTYLE_DIM_EXT1_LINETYPE
 70
     0
  0
APPID
  5
5F99
330
5F03
100
AcDbSymbolTableRecord
100
AcDbRegAppTableRecord
  2
ACAD_DSTYLE_DIM_EXT2_LINETYPE
 70
     0
  0
APPID
  5
5F9A
330
5F03
100
AcDbSymbolTableRecord
100
AcDbRegAppTableRecord
  2
ACAD_DSTYLE_DIMRADIAL_EXTENSION
 70
     0
  0
APPID
  5
6488
330
5F03
100
AcDbSymbolTableRecord
100
AcDbRegAppTableRecord
  2
AcadAnnoPO
 70
     0
  0
APPID
  5
7772
330
5F03
100
AcDbSymbolTableRecord
100
AcDbRegAppTableRecord
  2
ACAD_DSTYLE_DIMJOGGED_JOGANGLE_SYMBOL
 70
     0
  0
APPID
  5
901E
330
5F03
100
AcDbSymbolTableRecord
100
AcDbRegAppTableRecord
  2
ACAD_NAV_VCDISPLAY
 70
     0
  0
ENDTAB
  0
TABLE
  2
DIMSTYLE
  5
5F04
330
0
100
AcDbSymbolTable
 70
    13
100
AcDbDimStyleTable
 71
     2
340
5F9B
340
5F59
  0
DIMSTYLE
105
5F59
330
5F04
100
AcDbSymbolTableRecord
100
AcDbDimStyleTableRecord
  2
STANDARD
 70
     0
 41
0.65
 73
     0
 74
     0
140
0.65
176
     3
177
     3
178
     3
271
     3
272
     3
276
     2
277
     5
279
     2
284
     8
285
     8
286
     8
340
5F57
371
    13
372
    13
1001
ACAD_DSTYLE_DIMJAG
1070
   388
1040
1.5
1001
ACAD_DSTYLE_DIMTALN
1070
   392
1070
     0
1001
ACAD_DSTYLE_DIM_LINETYPE
1070
   380
1005
5F5E
1001
ACAD_DSTYLE_DIM_EXT1_LINETYPE
1070
   381
1005
5F5E
1001
ACAD_DSTYLE_DIM_EXT2_LINETYPE
1070
   382
1005
5F5E
  0
DIMSTYLE
105
5F9B
330
5F04
100
AcDbSymbolTableRecord
100
AcDbDimStyleTableRecord
  2
副本STANDARD
 70
     0
  3
"
  4
"
 41
0.65
 42
0.88
 43
0.015
 44
0.32
 73
     0
 74
     0
 78
     8
140
0.65
143
0.03937
147
0.3
171
     1
172
     1
176
   256
177
   256
178
   256
271
     3
272
     3
274
     1
276
     2
277
     5
279
     2
284
     8
285
     8
286
     8
340
5F57
1001
ACAD_DSTYLE_DIMJAG
1070
   388
1040
1.5
1001
ACAD_DSTYLE_DIMTALN
1070
   392
1070
     0
  0
DIMSTYLE
105
848C
102
{ACAD_REACTORS
330
9775
330
9773
330
9732
330
971B
330
974D
330
971A
330
9719
102
}
330
5F04
100
AcDbSymbolTableRecord
100
AcDbDimStyleTableRecord
  2
副本Standard$0
 70
     0
  4
"
 41
16.0
 42
20.0
 44
7.0
 73
     0
 74
     0
 78
     8
 79
     2
140
20.0
143
0.03937
147
5.0
171
     3
172
     1
176
   256
177
   256
178
   256
179
     1
271
     1
272
     1
273
     7
274
     3
278
    44
340
5F57
1001
ACAD_DSTYLE_DIMBREAK
1070
   391
1040
0.125
1001
ACAD_DSTYLE_DIMJAG
1070
   388
1040
1.5
  0
DIMSTYLE
105
8C9C
330
5F04
100
AcDbSymbolTableRecord
100
AcDbDimStyleTableRecord
  2
中14+
 70
     0
  4
"
 41
14.0
 42
10.0
 43
1.0
 44
2.0
 73
     0
 74
     0
 78
     8
140
14.0
141
2.0
143
0.03937007874016
147
5.0
171
     3
172
     1
177
   256
179
     1
271
     1
272
     1
273
     7
274
     3
278
    44
283
     0
284
     8
340
5F57
1001
ACAD_DSTYLE_DIMBREAK
1070
   391
1040
0.2
1001
ACAD_DSTYLE_DIMJAG
1070
   388
1040
1.5
1001
ACAD_DSTYLE_DIMTALN
1070
   392
1070
     0
  0
DIMSTYLE
105
8C9D
330
5F04
100
AcDbSymbolTableRecord
100
AcDbDimStyleTableRecord
  2
毫米英寸Standard
 70
     0
  3
mm
  4
"
 41
14.0
 42
20.0
 44
8.0
 73
     0
 74
     0
 78
     8
 79
     2
140
14.0
143
0.03937
147
8.0
170
     1
171
     3
172
     1
176
   256
177
   256
178
   256
179
     1
271
     1
272
     1
273
     7
274
     3
278
    44
340
5F57
1001
ACAD_DSTYLE_DIMBREAK
1070
   391
1040
0.125
1001
ACAD_DSTYLE_DIMJAG
1070
   388
1040
1.5
1001
ACAD_DSTYLE_DIMTALN
1070
   392
1070
     0
  0
DIMSTYLE
105
8C9E
330
5F04
100
AcDbSymbolTableRecord
100
AcDbDimStyleTableRecord
  2
英寸
 70
     0
  3
"
  4
"
 41
15.0
 42
0.625
 43
3.75
 44
1.25
 73
     0
 74
     0
 78
     8
140
14.0
141
15.0
143
0.03937007874016
144
0.03937007874
147
0.625
171
     3
172
     1
176
     3
177
     3
178
     3
271
     3
272
     3
273
     7
274
     3
276
     2
277
     5
278
    44
283
     0
284
     8
340
7201
371
     9
372
     9
1001
ACAD_DSTYLE_DIMBREAK
1070
   391
1040
3.75
1001
ACAD_DSTYLE_DIMJAG
1070
   388
1040
1.5
1001
ACAD_DSTYLE_DIMTALN
1070
   392
1070
     0
1001
ACAD_DSTYLE_DIM_LINETYPE
1070
   380
1005
5F5E
1001
ACAD_DSTYLE_DIM_EXT1_LINETYPE
1070
   381
1005
5F5E
1001
ACAD_DSTYLE_DIM_EXT2_LINETYPE
1070
   382
1005
5F5E
  0
DIMSTYLE
105
8C9F
330
5F04
100
AcDbSymbolTableRecord
100
AcDbDimStyleTableRecord
  2
副本 中14+
 70
     0
  4
"
 41
14.0
 42
10.0
 43
1.0
 44
2.0
 73
     0
 74
     0
 78
     8
140
14.0
141
2.0
143
0.03937007874016
147
5.0
171
     3
172
     1
176
   256
177
   256
178
   256
179
     1
271
     0
272
     0
273
     7
274
     3
278
    44
283
     0
284
     8
340
7201
1001
ACAD_DSTYLE_DIMBREAK
1070
   391
1040
0.2
1001
ACAD_DSTYLE_DIMJAG
1070
   388
1040
1.5
1001
ACAD_DSTYLE_DIMTALN
1070
   392
1070
     0
  0
DIMSTYLE
105
901C
330
5F04
100
AcDbSymbolTableRecord
100
AcDbDimStyleTableRecord
  2
毫米英寸10+
 70
     0
  3
mm
  4
"
 41
10.0
 42
12.0
 44
5.0
 73
     0
 74
     0
 78
     8
 79
     2
140
10.0
143
0.03937
147
5.0
170
     1
171
     4
172
     1
176
   256
177
   256
178
   256
179
     1
271
     1
272
     1
273
     7
274
     4
278
    44
340
5F57
1001
ACAD_DSTYLE_DIMBREAK
1070
   391
1040
0.125
1001
ACAD_DSTYLE_DIMJAG
1070
   388
1040
1.5
1001
ACAD_DSTYLE_DIMTALN
1070
   392
1070
     0
  0
DIMSTYLE
105
901D
330
5F04
100
AcDbSymbolTableRecord
100
AcDbDimStyleTableRecord
  2
中12+
 70
     0
  4
"
 41
12.0
 42
9.0
 43
1.0
 44
2.0
 73
     0
 74
     0
 78
     8
140
12.0
141
2.0
143
0.03937007874016
147
5.0
171
     3
172
     1
179
     1
271
     1
272
     1
273
     7
274
     3
278
    44
283
     0
284
     8
340
5F57
1001
ACAD_DSTYLE_DIMBREAK
1070
   391
1040
0.2
1001
ACAD_DSTYLE_DIMJAG
1070
   388
1040
1.5
1001
ACAD_DSTYLE_DIMTALN
1070
   392
1070
     0
  0
DIMSTYLE
105
9317
330
5F04
100
AcDbSymbolTableRecord
100
AcDbDimStyleTableRecord
  2
副本Standard(含英寸)
 70
     0
  4
"
 41
12.0
 42
20.0
 44
7.0
 73
     0
 74
     0
 78
     8
 79
     2
140
12.0
143
0.03937
147
3.5
170
     1
171
     3
172
     1
176
   256
177
   256
178
   256
179
     1
271
     1
272
     1
273
     7
274
     3
278
    44
340
5F57
1001
ACAD_DSTYLE_DIMBREAK
1070
   391
1040
0.125
1001
ACAD_DSTYLE_DIMJAG
1070
   388
1040
1.5
1001
ACAD_DSTYLE_DIMTALN
1070
   392
1070
     0
  0
DIMSTYLE
105
9318
330
5F04
100
AcDbSymbolTableRecord
100
AcDbDimStyleTableRecord
  2
中16+
 70
     0
  4
"
 41
16.0
 42
10.0
 43
1.0
 44
2.0
 73
     0
 74
     0
 78
     8
140
16.0
141
2.0
143
0.03937007874016
147
5.0
171
     3
172
     1
179
     1
271
     1
272
     1
273
     7
274
     3
278
    44
283
     0
284
     8
340
5F57
1001
ACAD_DSTYLE_DIMBREAK
1070
   391
1040
0.2
1001
ACAD_DSTYLE_DIMJAG
1070
   388
1040
1.5
1001
ACAD_DSTYLE_DIMTALN
1070
   392
1070
     0
  0
DIMSTYLE
105
96AF
102
{ACAD_REACTORS
330
96B1
330
96B2
330
96B3
330
96CA
330
96E5
102
}
330
5F04
100
AcDbSymbolTableRecord
100
AcDbDimStyleTableRecord
  2
inch
 70
     0
  3
"
  4
"
 41
14.0
 42
20.0
 44
8.0
 73
     0
 74
     0
 78
     8
 79
     2
140
14.0
143
0.03937
144
0.03937
147
8.0
171
     3
172
     1
176
   256
177
   256
178
   256
179
     1
271
     3
272
     3
273
     7
274
     3
276
     2
277
     5
278
    44
340
5F57
1001
ACAD_DSTYLE_DIMBREAK
1070
   391
1040
0.125
1001
ACAD_DSTYLE_DIMJAG
1070
   388
1040
1.5
1001
ACAD_DSTYLE_DIMTALN
1070
   392
1070
     0
  0
ENDTAB
  0
TABLE
  2
BLOCK_RECORD
  5
5EFB
330
0
100
AcDbSymbolTable
 70
    87
  0
BLOCK_RECORD
  5
5F6E
102
{ACAD_XDICTIONARY
360
654F
102
}
330
5EFB
100
AcDbSymbolTableRecord
100
AcDbBlockTableRecord
  2
*Model_Space
340
5F71
  0
BLOCK_RECORD
  5
5F6A
330
5EFB
100
AcDbSymbolTableRecord
100
AcDbBlockTableRecord
  2
*Paper_Space
340
5F6D
  0
BLOCK_RECORD
  5
860F
330
5EFB
100
AcDbSymbolTableRecord
100
AcDbBlockTableRecord
  2
*D0
340
0
  0
BLOCK_RECORD
  5
861D
330
5EFB
100
AcDbSymbolTableRecord
100
AcDbBlockTableRecord
  2
*D1
340
0
  0
BLOCK_RECORD
  5
862A
330
5EFB
100
AcDbSymbolTableRecord
100
AcDbBlockTableRecord
  2
*D2
340
0
  0
BLOCK_RECORD
  5
8637
330
5EFB
100
AcDbSymbolTableRecord
100
AcDbBlockTableRecord
  2
*D3
340
0
  0
BLOCK_RECORD
  5
8644
330
5EFB
100
AcDbSymbolTableRecord
100
AcDbBlockTableRecord
  2
*D4
340
0
  0
BLOCK_RECORD
  5
8651
330
5EFB
100
AcDbSymbolTableRecord
100
AcDbBlockTableRecord
  2
*D5
340
0
  0
BLOCK_RECORD
  5
865F
330
5EFB
100
AcDbSymbolTableRecord
100
AcDbBlockTableRecord
  2
*D6
340
0
  0
BLOCK_RECORD
  5
8677
330
5EFB
100
AcDbSymbolTableRecord
100
AcDbBlockTableRecord
  2
*D7
340
0
  0
BLOCK_RECORD
  5
8685
330
5EFB
100
AcDbSymbolTableRecord
100
AcDbBlockTableRecord
  2
*D8
340
0
  0
BLOCK_RECORD
  5
86BA
330
5EFB
100
AcDbSymbolTableRecord
100
AcDbBlockTableRecord
  2
*D9
340
0
  0
BLOCK_RECORD
  5
8968
330
5EFB
100
AcDbSymbolTableRecord
100
AcDbBlockTableRecord
  2
*D10
340
0
  0
BLOCK_RECORD
  5
8975
330
5EFB
100
AcDbSymbolTableRecord
100
AcDbBlockTableRecord
  2
*D11
340
0
  0
BLOCK_RECORD
  5
8982
330
5EFB
100
AcDbSymbolTableRecord
100
AcDbBlockTableRecord
  2
*D12
340
0
  0
BLOCK_RECORD
  5
898F
330
5EFB
100
AcDbSymbolTableRecord
100
AcDbBlockTableRecord
  2
*D13
340
0
  0
BLOCK_RECORD
  5
89C4
330
5EFB
100
AcDbSymbolTableRecord
100
AcDbBlockTableRecord
  2
*D14
340
0
  0
BLOCK_RECORD
  5
89D1
330
5EFB
100
AcDbSymbolTableRecord
100
AcDbBlockTableRecord
  2
*D15
340
0
  0
BLOCK_RECORD
  5
8A43
330
5EFB
100
AcDbSymbolTableRecord
100
AcDbBlockTableRecord
  2
*D16
340
0
  0
BLOCK_RECORD
  5
8C01
330
5EFB
100
AcDbSymbolTableRecord
100
AcDbBlockTableRecord
  2
*D17
340
0
  0
BLOCK_RECORD
  5
8C0F
330
5EFB
100
AcDbSymbolTableRecord
100
AcDbBlockTableRecord
  2
*D18
340
0
  0
BLOCK_RECORD
  5
8C1D
330
5EFB
100
AcDbSymbolTableRecord
100
AcDbBlockTableRecord
  2
*D19
340
0
  0
BLOCK_RECORD
  5
8C2B
330
5EFB
100
AcDbSymbolTableRecord
100
AcDbBlockTableRecord
  2
*D20
340
0
  0
BLOCK_RECORD
  5
8C39
330
5EFB
100
AcDbSymbolTableRecord
100
AcDbBlockTableRecord
  2
*D21
340
0
  0
BLOCK_RECORD
  5
8C48
330
5EFB
100
AcDbSymbolTableRecord
100
AcDbBlockTableRecord
  2
*D22
340
0
  0
BLOCK_RECORD
  5
8C56
330
5EFB
100
AcDbSymbolTableRecord
100
AcDbBlockTableRecord
  2
*D23
340
0
  0
BLOCK_RECORD
  5
8C64
330
5EFB
100
AcDbSymbolTableRecord
100
AcDbBlockTableRecord
  2
*D24
340
0
  0
BLOCK_RECORD
  5
8C72
330
5EFB
100
AcDbSymbolTableRecord
100
AcDbBlockTableRecord
  2
*D25
340
0
  0
BLOCK_RECORD
  5
8C80
330
5EFB
100
AcDbSymbolTableRecord
100
AcDbBlockTableRecord
  2
*D26
340
0
  0
BLOCK_RECORD
  5
8C8E
330
5EFB
100
AcDbSymbolTableRecord
100
AcDbBlockTableRecord
  2
*D27
340
0
  0
BLOCK_RECORD
  5
8D96
330
5EFB
100
AcDbSymbolTableRecord
100
AcDbBlockTableRecord
  2
*D28
340
0
  0
BLOCK_RECORD
  5
8DA4
330
5EFB
100
AcDbSymbolTableRecord
100
AcDbBlockTableRecord
  2
*D29
340
0
  0
BLOCK_RECORD
  5
8DB2
330
5EFB
100
AcDbSymbolTableRecord
100
AcDbBlockTableRecord
  2
*D30
340
0
  0
BLOCK_RECORD
  5
8DC0
330
5EFB
100
AcDbSymbolTableRecord
100
AcDbBlockTableRecord
  2
*D31
340
0
  0
BLOCK_RECORD
  5
8DCE
330
5EFB
100
AcDbSymbolTableRecord
100
AcDbBlockTableRecord
  2
*D32
340
0
  0
BLOCK_RECORD
  5
8DDC
330
5EFB
100
AcDbSymbolTableRecord
100
AcDbBlockTableRecord
  2
*D33
340
0
  0
BLOCK_RECORD
  5
8DEA
330
5EFB
100
AcDbSymbolTableRecord
100
AcDbBlockTableRecord
  2
*D34
340
0
  0
BLOCK_RECORD
  5
8DF8
330
5EFB
100
AcDbSymbolTableRecord
100
AcDbBlockTableRecord
  2
*D35
340
0
  0
BLOCK_RECORD
  5
8E11
330
5EFB
100
AcDbSymbolTableRecord
100
AcDbBlockTableRecord
  2
*D36
340
0
  0
BLOCK_RECORD
  5
8E2A
330
5EFB
100
AcDbSymbolTableRecord
100
AcDbBlockTableRecord
  2
*D37
340
0
  0
BLOCK_RECORD
  5
8E38
330
5EFB
100
AcDbSymbolTableRecord
100
AcDbBlockTableRecord
  2
*D38
340
0
  0
BLOCK_RECORD
  5
8F9F
330
5EFB
100
AcDbSymbolTableRecord
100
AcDbBlockTableRecord
  2
U
340
0
310
2800000020000000200000000100080000000000000400000000000000000000000000000000000000000000000080000080000000808000800000008000800080800000C0C0C000C0DCC000F0CAA6000020400000206000002080000020A0000020C0000020E00000400000004020000040400000406000004080000040A0
310
000040C0000040E00000600000006020000060400000606000006080000060A0000060C0000060E00000800000008020000080400000806000008080000080A0000080C0000080E00000A0000000A0200000A0400000A0600000A0800000A0A00000A0C00000A0E00000C0000000C0200000C0400000C0600000C0800000C0
310
A00000C0C00000C0E00000E0000000E0200000E0400000E0600000E0800000E0A00000E0C00000E0E00040000000400020004000400040006000400080004000A0004000C0004000E00040200000402020004020400040206000402080004020A0004020C0004020E000404000004040200040404000404060004040800040
310
40A0004040C0004040E00040600000406020004060400040606000406080004060A0004060C0004060E00040800000408020004080400040806000408080004080A0004080C0004080E00040A0000040A0200040A0400040A0600040A0800040A0A00040A0C00040A0E00040C0000040C0200040C0400040C0600040C08000
310
40C0A00040C0C00040C0E00040E0000040E0200040E0400040E0600040E0800040E0A00040E0C00040E0E00080000000800020008000400080006000800080008000A0008000C0008000E00080200000802020008020400080206000802080008020A0008020C0008020E00080400000804020008040400080406000804080
310
008040A0008040C0008040E00080600000806020008060400080606000806080008060A0008060C0008060E00080800000808020008080400080806000808080008080A0008080C0008080E00080A0000080A0200080A0400080A0600080A0800080A0A00080A0C00080A0E00080C0000080C0200080C0400080C0600080C0
310
800080C0A00080C0C00080C0E00080E0000080E0200080E0400080E0600080E0800080E0A00080E0C00080E0E000C0000000C0002000C0004000C0006000C0008000C000A000C000C000C000E000C0200000C0202000C0204000C0206000C0208000C020A000C020C000C020E000C0400000C0402000C0404000C0406000C0
310
408000C040A000C040C000C040E000C0600000C0602000C0604000C0606000C0608000C060A000C060C000C060E000C0800000C0802000C0804000C0806000C0808000C080A000C080C000C080E000C0A00000C0A02000C0A04000C0A06000C0A08000C0A0A000C0A0C000C0A0E000C0C00000C0C02000C0C04000C0C06000
310
C0C08000C0C0A000F0FBFF00A4A0A000808080000000FF0000FF000000FFFF00FF000000FF00FF00FFFF0000FFFFFF000000000000000000000000000000000000000000000000000000000000000000000000000000C6C600000000000000000000000000000000C6C60000000000000000000000C6C6C6C6000000000000
310
0000000000000000C6C6C6C600000000000000000000C6C6C6C60000000000000000000000000000C6C6C6C600000000000000000000C6C6C6C6C6000000000000000000000000C6C6C6C6C600000000000000000000C6C6C6C6C6000000000000000000000000C6C6C6C6C600000000000000000000C6C6C6C6C600000000
310
0000000000000000C6C600C6C600000000000000000000C6C600C6C6C600000000000000000000C6C6C600C6C600000000000000000000C6C600C600C600000000000000000000C600C600C6C600000000000000000000C6C600C6C6000000000000000000000000C6C600C6C600000000000000000000C6C6000000000000
310
000000000000000000000000C6C600000000000000000000C6C6000000000000000000000000000000000000C6C600000000000000000000C6C6000000000000000000000000000000000000C6C600000000000000000000C6C6000000000000000000000000000000000000C6C600000000000000000000C6C60000000000
310
00000000000000000000000000C6C600000000000000000000C6C6000000000000000000000000000000000000C6C600000000000000000000C6C6000000000000000000000000000000000000C6C600000000000000000000C6C6000000000000000000000000000000000000C6C600000000000000000000C6C600000000
310
0000000000000000000000000000C6C600000000000000000000C6C6000000000000000000000000000000000000C6C600000000000000000000C6C6000000000000000000000000000000000000C6C600000000000000000000C6C6000000000000000000000000000000000000C6C600000000000000000000C6C6000000
310
000000000000000000000000000000C6C600000000000000000000C6C6000000000000000000000000000000000000C6C600000000000000000000C6C6000000000000000000000000000000000000C6C600000000000000000000C6C6000000000000000000000000000000000000C6C600000000000000000000C6C60000
310
00000000000000000000000000000000C6C600000000000000000000C6C6C600000000000000000000000000000000C6C6C600000000000000000000C6C6C6C6C6C6C6C6C6C6C6C6C6C6C6C6C6C6C6C6C6C60000000000000000000000C6C600C600C6C600C6C600C600C6C600C6C6C6C60000000000000000000000000000
310
C6C6C6C6C6C6C6C6C6C6C6C6C6C6C6C600000000000000000000000000000000000000000000000000000000000000000000000000000000
102
{BLKREFS
331
9709
331
970A
331
9771
331
9772
102
}
1001
ACAD
1000
DesignCenter Data
1002
{
1070
     1
1070
     1
1002
}
  0
BLOCK_RECORD
  5
8FB9
330
5EFB
100
AcDbSymbolTableRecord
100
AcDbBlockTableRecord
  2
*D40
340
0
  0
BLOCK_RECORD
  5
8FC7
330
5EFB
100
AcDbSymbolTableRecord
100
AcDbBlockTableRecord
  2
*D41
340
0
  0
BLOCK_RECORD
  5
8FD5
330
5EFB
100
AcDbSymbolTableRecord
100
AcDbBlockTableRecord
  2
*D42
340
0
  0
BLOCK_RECORD
  5
8FE3
330
5EFB
100
AcDbSymbolTableRecord
100
AcDbBlockTableRecord
  2
*D43
340
0
  0
BLOCK_RECORD
  5
8FF1
330
5EFB
100
AcDbSymbolTableRecord
100
AcDbBlockTableRecord
  2
*D44
340
0
  0
BLOCK_RECORD
  5
8FFF
330
5EFB
100
AcDbSymbolTableRecord
100
AcDbBlockTableRecord
  2
*D45
340
0
  0
BLOCK_RECORD
  5
900D
330
5EFB
100
AcDbSymbolTableRecord
100
AcDbBlockTableRecord
  2
*D46
340
0
  0
BLOCK_RECORD
  5
910F
330
5EFB
100
AcDbSymbolTableRecord
100
AcDbBlockTableRecord
  2
*D47
340
0
  0
BLOCK_RECORD
  5
911D
330
5EFB
100
AcDbSymbolTableRecord
100
AcDbBlockTableRecord
  2
*D48
340
0
  0
BLOCK_RECORD
  5
912B
330
5EFB
100
AcDbSymbolTableRecord
100
AcDbBlockTableRecord
  2
*D49
340
0
  0
BLOCK_RECORD
  5
9144
330
5EFB
100
AcDbSymbolTableRecord
100
AcDbBlockTableRecord
  2
*D50
340
0
  0
BLOCK_RECORD
  5
9152
330
5EFB
100
AcDbSymbolTableRecord
100
AcDbBlockTableRecord
  2
*D51
340
0
  0
BLOCK_RECORD
  5
916B
330
5EFB
100
AcDbSymbolTableRecord
100
AcDbBlockTableRecord
  2
*D52
340
0
  0
BLOCK_RECORD
  5
9179
330
5EFB
100
AcDbSymbolTableRecord
100
AcDbBlockTableRecord
  2
*D53
340
0
  0
BLOCK_RECORD
  5
92AD
330
5EFB
100
AcDbSymbolTableRecord
100
AcDbBlockTableRecord
  2
*D54
340
0
  0
BLOCK_RECORD
  5
92BB
330
5EFB
100
AcDbSymbolTableRecord
100
AcDbBlockTableRecord
  2
*D55
340
0
  0
BLOCK_RECORD
  5
92C9
330
5EFB
100
AcDbSymbolTableRecord
100
AcDbBlockTableRecord
  2
*D56
340
0
  0
BLOCK_RECORD
  5
92D7
330
5EFB
100
AcDbSymbolTableRecord
100
AcDbBlockTableRecord
  2
*D57
340
0
  0
BLOCK_RECORD
  5
92E5
330
5EFB
100
AcDbSymbolTableRecord
100
AcDbBlockTableRecord
  2
*D58
340
0
  0
BLOCK_RECORD
  5
92F3
330
5EFB
100
AcDbSymbolTableRecord
100
AcDbBlockTableRecord
  2
*D59
340
0
  0
BLOCK_RECORD
  5
9301
330
5EFB
100
AcDbSymbolTableRecord
100
AcDbBlockTableRecord
  2
*D60
340
0
  0
BLOCK_RECORD
  5
9309
330
5EFB
100
AcDbSymbolTableRecord
100
AcDbBlockTableRecord
  2
*D61
340
0
  0
BLOCK_RECORD
  5
9403
330
5EFB
100
AcDbSymbolTableRecord
100
AcDbBlockTableRecord
  2
*D62
340
0
  0
BLOCK_RECORD
  5
9411
330
5EFB
100
AcDbSymbolTableRecord
100
AcDbBlockTableRecord
  2
*D63
340
0
  0
BLOCK_RECORD
  5
941F
330
5EFB
100
AcDbSymbolTableRecord
100
AcDbBlockTableRecord
  2
*D64
340
0
  0
BLOCK_RECORD
  5
942D
330
5EFB
100
AcDbSymbolTableRecord
100
AcDbBlockTableRecord
  2
*D65
340
0
  0
BLOCK_RECORD
  5
943B
330
5EFB
100
AcDbSymbolTableRecord
100
AcDbBlockTableRecord
  2
*D66
340
0
  0
BLOCK_RECORD
  5
9454
330
5EFB
100
AcDbSymbolTableRecord
100
AcDbBlockTableRecord
  2
*D67
340
0
  0
BLOCK_RECORD
  5
9483
330
5EFB
100
AcDbSymbolTableRecord
100
AcDbBlockTableRecord
  2
*D68
340
0
  0
BLOCK_RECORD
  5
949C
330
5EFB
100
AcDbSymbolTableRecord
100
AcDbBlockTableRecord
  2
*D69
340
0
  0
BLOCK_RECORD
  5
9529
330
5EFB
100
AcDbSymbolTableRecord
100
AcDbBlockTableRecord
  2
*D70
340
0
  0
BLOCK_RECORD
  5
964D
330
5EFB
100
AcDbSymbolTableRecord
100
AcDbBlockTableRecord
  2
*D71
340
0
  0
BLOCK_RECORD
  5
965B
330
5EFB
100
AcDbSymbolTableRecord
100
AcDbBlockTableRecord
  2
*D72
340
0
  0
BLOCK_RECORD
  5
9669
330
5EFB
100
AcDbSymbolTableRecord
100
AcDbBlockTableRecord
  2
*D73
340
0
  0
BLOCK_RECORD
  5
9677
330
5EFB
100
AcDbSymbolTableRecord
100
AcDbBlockTableRecord
  2
*D74
340
0
  0
BLOCK_RECORD
  5
9685
330
5EFB
100
AcDbSymbolTableRecord
100
AcDbBlockTableRecord
  2
*D75
340
0
  0
BLOCK_RECORD
  5
9693
330
5EFB
100
AcDbSymbolTableRecord
100
AcDbBlockTableRecord
  2
*D76
340
0
  0
BLOCK_RECORD
  5
96A1
330
5EFB
100
AcDbSymbolTableRecord
100
AcDbBlockTableRecord
  2
*D77
340
0
  0
BLOCK_RECORD
  5
977C
330
5EFB
100
AcDbSymbolTableRecord
100
AcDbBlockTableRecord
  2
*D79
340
0
  0
BLOCK_RECORD
  5
978A
330
5EFB
100
AcDbSymbolTableRecord
100
AcDbBlockTableRecord
  2
*D80
340
0
  0
BLOCK_RECORD
  5
9798
330
5EFB
100
AcDbSymbolTableRecord
100
AcDbBlockTableRecord
  2
*D81
340
0
  0
BLOCK_RECORD
  5
97A6
330
5EFB
100
AcDbSymbolTableRecord
100
AcDbBlockTableRecord
  2
*D82
340
0
  0
BLOCK_RECORD
  5
97B4
330
5EFB
100
AcDbSymbolTableRecord
100
AcDbBlockTableRecord
  2
*D83
340
0
  0
BLOCK_RECORD
  5
97C2
330
5EFB
100
AcDbSymbolTableRecord
100
AcDbBlockTableRecord
  2
*D84
340
0
  0
BLOCK_RECORD
  5
97D0
330
5EFB
100
AcDbSymbolTableRecord
100
AcDbBlockTableRecord
  2
*D85
340
0
  0
ENDTAB
  0
ENDSEC
  0
SECTION
  2
BLOCKS
  0
BLOCK
  5
5F6F
330
5F6E
100
AcDbEntity
  8
0
100
AcDbBlockBegin
  2
*Model_Space
 70
     0
 10
0.0
 20
0.0
 30
0.0
  3
*Model_Space
  1

  0
ENDBLK
  5
5F70
330
5F6E
100
AcDbEntity
  8
0
100
AcDbBlockEnd
  0
BLOCK
  5
5F6B
330
5F6A
100
AcDbEntity
 67
     1
  8
0
100
AcDbBlockBegin
  2
*Paper_Space
 70
     0
 10
0.0
 20
0.0
 30
0.0
  3
*Paper_Space
  1

  0
ENDBLK
  5
5F6C
330
5F6A
100
AcDbEntity
 67
     1
  8
0
100
AcDbBlockEnd
  0
BLOCK
  5
8610
330
860F
100
AcDbEntity
  8
0
100
AcDbBlockBegin
  2
*D0
 70
     1
 10
0.0
 20
0.0
 30
0.0
  3
*D0
  1

  0
LINE
  5
8781
330
860F
100
AcDbEntity
  8
标注
  6
Continuous
370
    -2
100
AcDbLine
 10
1313.712521274906
 20
176.1909182495404
 30
0.0
 11
1317.643538861865
 21
176.1909182495404
 31
0.0
  0
LINE
  5
8782
330
860F
100
AcDbEntity
  8
标注
  6
Continuous
370
    -2
100
AcDbLine
 10
1311.692132288515
 20
166.1909383573768
 30
0.0
 11
1317.643538861865
 21
166.1909383573768
 31
0.0
  0
LINE
  5
8783
330
860F
100
AcDbEntity
  8
标注
  6
Continuous
370
    -2
100
AcDbLine
 10
1317.323538861865
 20
175.5409182495404
 30
0.0
 11
1317.323538861865
 21
172.0863921506619
 31
0.0
  0
LINE
  5
8784
330
860F
100
AcDbEntity
  8
标注
  6
Continuous
370
    -2
100
AcDbLine
 10
1317.323538861865
 20
166.8409383573768
 30
0.0
 11
1317.323538861865
 21
170.2954644562553
 31
0.0
  0
MTEXT
  5
8785
330
860F
100
AcDbEntity
  8
标注
100
AcDbMText
 10
1317.323538861865
 20
171.1909283034588
 30
0.0
 40
0.65
 41
0.0
 71
     5
 72
     1
  1
\A1;10"
 11
0.0000000000000001
 21
1.0
 31
0.0
 73
     1
 44
1.0
1001
ACAD
1000
MTEXTBEGIN
1070
    73
1070
     1
1070
    44
1040
1.0
1070
    74
1070
     0
1000
MTEXTEND
  0
SOLID
  5
8786
330
860F
100
AcDbEntity
  8
标注
100
AcDbTrace
 10
1317.215205528532
 20
175.5409182495404
 30
0.0
 11
1317.431872195199
 21
175.5409182495404
 31
0.0
 12
1317.323538861865
 22
176.1909182495404
 32
0.0
 13
1317.323538861865
 23
176.1909182495404
 33
0.0
  0
SOLID
  5
8787
330
860F
100
AcDbEntity
  8
标注
100
AcDbTrace
 10
1317.215205528532
 20
166.8409383573768
 30
0.0
 11
1317.431872195199
 21
166.8409383573768
 31
0.0
 12
1317.323538861865
 22
166.1909383573768
 32
0.0
 13
1317.323538861865
 23
166.1909383573768
 33
0.0
  0
POINT
  5
8788
330
860F
100
AcDbEntity
  8
DEFPOINTS
 62
     0
100
AcDbPoint
 10
1312.832521274906
 20
176.1909182495404
 30
0.0
  0
POINT
  5
8789
330
860F
100
AcDbEntity
  8
DEFPOINTS
 62
     0
100
AcDbPoint
 10
1310.812132288515
 20
166.1909383573768
 30
0.0
  0
POINT
  5
878A
330
860F
100
AcDbEntity
  8
DEFPOINTS
 62
     0
100
AcDbPoint
 10
1317.323538861865
 20
166.1909383573768
 30
0.0
  0
ENDBLK
  5
8611
330
860F
100
AcDbEntity
  8
0
100
AcDbBlockEnd
  0
BLOCK
  5
861E
330
861D
100
AcDbEntity
  8
0
100
AcDbBlockBegin
  2
*D1
 70
     1
 10
0.0
 20
0.0
 30
0.0
  3
*D1
  1

  0
LINE
  5
86DD
330
861D
100
AcDbEntity
  8
标注
 48
5.0
370
    -2
100
AcDbLine
 10
1312.37394127491
 20
153.4714879729567
 30
0.0
 11
1315.756089483383
 21
153.4714879729567
 31
0.0
  0
LINE
  5
86DE
330
861D
100
AcDbEntity
  8
标注
 48
5.0
370
    -2
100
AcDbLine
 10
1312.37394127491
 20
137.4715199729384
 30
0.0
 11
1315.756089483383
 21
137.4715199729384
 31
0.0
  0
LINE
  5
86DF
330
861D
100
AcDbEntity
  8
标注
 48
5.0
370
    -2
100
AcDbLine
 10
1315.436089483383
 20
152.8214879729567
 30
0.0
 11
1315.436089483383
 21
146.3669678201652
 31
0.0
  0
LINE
  5
86E0
330
861D
100
AcDbEntity
  8
标注
 48
5.0
370
    -2
100
AcDbLine
 10
1315.436089483383
 20
138.1215199729384
 30
0.0
 11
1315.436089483383
 21
144.5760401257587
 31
0.0
  0
MTEXT
  5
86E1
330
861D
100
AcDbEntity
  8
标注
 48
5.0
100
AcDbMText
 10
1315.436089483412
 20
145.4715039729621
 30
0.0
 40
0.65
 41
0.0
 71
     5
 72
     1
  1
\A1;16"
 11
0.0000000000000001
 21
1.0
 31
0.0
 73
     1
 44
1.0
1001
ACAD
1000
MTEXTBEGIN
1070
    73
1070
     1
1070
    44
1040
1.0
1070
    74
1070
     0
1000
MTEXTEND
  0
SOLID
  5
86E2
330
861D
100
AcDbEntity
  8
标注
 48
5.0
100
AcDbTrace
 10
1315.32775615005
 20
152.8214879729567
 30
0.0
 11
1315.544422816716
 21
152.8214879729567
 31
0.0
 12
1315.436089483383
 22
153.4714879729567
 32
0.0
 13
1315.436089483383
 23
153.4714879729567
 33
0.0
  0
SOLID
  5
86E3
330
861D
100
AcDbEntity
  8
标注
 48
5.0
100
AcDbTrace
 10
1315.32775615005
 20
138.1215199729384
 30
0.0
 11
1315.544422816716
 21
138.1215199729384
 31
0.0
 12
1315.436089483383
 22
137.4715199729384
 32
0.0
 13
1315.436089483383
 23
137.4715199729384
 33
0.0
  0
POINT
  5
86E4
330
861D
100
AcDbEntity
  8
DEFPOINTS
 62
     0
 48
5.0
100
AcDbPoint
 10
1311.49394127491
 20
153.4714879729567
 30
0.0
  0
POINT
  5
86E5
330
861D
100
AcDbEntity
  8
DEFPOINTS
 62
     0
 48
5.0
100
AcDbPoint
 10
1311.49394127491
 20
137.4715199729384
 30
0.0
  0
POINT
  5
86E6
330
861D
100
AcDbEntity
  8
DEFPOINTS
 62
     0
 48
5.0
100
AcDbPoint
 10
1315.436089483383
 20
137.4715199729384
 30
0.0
  0
ENDBLK
  5
861F
330
861D
100
AcDbEntity
  8
0
100
AcDbBlockEnd
  0
BLOCK
  5
862B
330
862A
100
AcDbEntity
  8
0
100
AcDbBlockBegin
  2
*D2
 70
     1
 10
0.0
 20
0.0
 30
0.0
  3
*D2
  1

  0
LINE
  5
8805
330
862A
100
AcDbEntity
  8
标注
 48
5.0
370
    -2
100
AcDbLine
 10
1295.993873849906
 20
136.5915199729385
 30
0.0
 11
1295.993873849906
 21
132.2002470845155
 31
0.0
  0
LINE
  5
8806
330
862A
100
AcDbEntity
  8
标注
 48
5.0
370
    -2
100
AcDbLine
 10
1281.493804424902
 20
136.5915199729385
 30
0.0
 11
1281.493804424902
 21
132.2002470845155
 31
0.0
  0
LINE
  5
8807
330
862A
100
AcDbEntity
  8
标注
 48
5.0
370
    -2
100
AcDbLine
 10
1295.343873849906
 20
132.5202470845155
 30
0.0
 11
1291.396599756776
 21
132.5202470845155
 31
0.0
  0
LINE
  5
8808
330
862A
100
AcDbEntity
  8
标注
 48
5.0
370
    -2
100
AcDbLine
 10
1282.143804424902
 20
132.5202470845155
 30
0.0
 11
1288.091074518031
 21
132.5202470845155
 31
0.0
  0
MTEXT
  5
8809
330
862A
100
AcDbEntity
  8
标注
 48
5.0
100
AcDbMText
 10
1289.743837137403
 20
132.5202470845155
 30
0.0
 40
0.65
 41
0.0
 71
     5
 72
     1
  1
\A1;14 1/2"
 73
     1
 44
1.0
1001
ACAD
1000
MTEXTBEGIN
1070
    73
1070
     1
1070
    44
1040
1.0
1070
    74
1070
     0
1000
MTEXTEND
  0
SOLID
  5
880A
330
862A
100
AcDbEntity
  8
标注
 48
5.0
100
AcDbTrace
 10
1295.343873849906
 20
132.6285804178488
 30
0.0
 11
1295.343873849906
 21
132.4119137511821
 31
0.0
 12
1295.993873849906
 22
132.5202470845155
 32
0.0
 13
1295.993873849906
 23
132.5202470845155
 33
0.0
  0
SOLID
  5
880B
330
862A
100
AcDbEntity
  8
标注
 48
5.0
100
AcDbTrace
 10
1282.143804424902
 20
132.6285804178488
 30
0.0
 11
1282.143804424902
 21
132.4119137511821
 31
0.0
 12
1281.493804424902
 22
132.5202470845155
 32
0.0
 13
1281.493804424902
 23
132.5202470845155
 33
0.0
  0
POINT
  5
880C
330
862A
100
AcDbEntity
  8
DEFPOINTS
 62
     0
 48
5.0
100
AcDbPoint
 10
1295.993873849906
 20
137.4715199729384
 30
0.0
  0
POINT
  5
880D
330
862A
100
AcDbEntity
  8
DEFPOINTS
 62
     0
 48
5.0
100
AcDbPoint
 10
1281.493804424902
 20
137.4715199729384
 30
0.0
  0
POINT
  5
880E
330
862A
100
AcDbEntity
  8
DEFPOINTS
 62
     0
 48
5.0
100
AcDbPoint
 10
1281.493804424902
 20
132.5202470845155
 30
0.0
  0
ENDBLK
  5
862C
330
862A
100
AcDbEntity
  8
0
100
AcDbBlockEnd
  0
BLOCK
  5
8638
330
8637
100
AcDbEntity
  8
0
100
AcDbBlockBegin
  2
*D3
 70
     1
 10
0.0
 20
0.0
 30
0.0
  3
*D3
  1

  0
LINE
  5
880F
330
8637
100
AcDbEntity
  8
标注
 48
5.0
370
    -2
100
AcDbLine
 10
1312.93094627491
 20
134.0915249729474
 30
0.0
 11
1312.93094627491
 21
130.4437306777841
 31
0.0
  0
LINE
  5
8810
330
8637
100
AcDbEntity
  8
标注
 48
5.0
370
    -2
100
AcDbLine
 10
1280.056799424916
 20
134.0915249729474
 30
0.0
 11
1280.056799424916
 21
130.4437306777841
 31
0.0
  0
LINE
  5
8811
330
8637
100
AcDbEntity
  8
标注
 48
5.0
370
    -2
100
AcDbLine
 10
1312.28094627491
 20
130.7637306777841
 30
0.0
 11
1298.177007229176
 21
130.7637306777841
 31
0.0
  0
LINE
  5
8812
330
8637
100
AcDbEntity
  8
标注
 48
5.0
370
    -2
100
AcDbLine
 10
1280.706799424916
 20
130.7637306777841
 30
0.0
 11
1294.81073847065
 21
130.7637306777841
 31
0.0
  0
MTEXT
  5
8813
330
8637
100
AcDbEntity
  8
标注
 48
5.0
100
AcDbMText
 10
1296.493872849913
 20
130.7637306777841
 30
0.0
 40
0.65
 41
0.0
 71
     5
 72
     1
  1
\A1;32 7/8"
 73
     1
 44
1.0
1001
ACAD
1000
MTEXTBEGIN
1070
    73
1070
     1
1070
    44
1040
1.0
1070
    74
1070
     0
1000
MTEXTEND
  0
SOLID
  5
8814
330
8637
100
AcDbEntity
  8
标注
 48
5.0
100
AcDbTrace
 10
1312.28094627491
 20
130.8720640111174
 30
0.0
 11
1312.28094627491
 21
130.6553973444508
 31
0.0
 12
1312.93094627491
 22
130.7637306777841
 32
0.0
 13
1312.93094627491
 23
130.7637306777841
 33
0.0
  0
SOLID
  5
8815
330
8637
100
AcDbEntity
  8
标注
 48
5.0
100
AcDbTrace
 10
1280.706799424916
 20
130.8720640111174
 30
0.0
 11
1280.706799424916
 21
130.6553973444508
 31
0.0
 12
1280.056799424916
 22
130.7637306777841
 32
0.0
 13
1280.056799424916
 23
130.7637306777841
 33
0.0
  0
POINT
  5
8816
330
8637
100
AcDbEntity
  8
DEFPOINTS
 62
     0
 48
5.0
100
AcDbPoint
 10
1312.93094627491
 20
134.9715249729474
 30
0.0
  0
POINT
  5
8817
330
8637
100
AcDbEntity
  8
DEFPOINTS
 62
     0
 48
5.0
100
AcDbPoint
 10
1280.056799424916
 20
134.9715249729474
 30
0.0
  0
POINT
  5
8818
330
8637
100
AcDbEntity
  8
DEFPOINTS
 62
     0
 48
5.0
100
AcDbPoint
 10
1280.056799424916
 20
130.7637306777841
 30
0.0
  0
ENDBLK
  5
8639
330
8637
100
AcDbEntity
  8
0
100
AcDbBlockEnd
  0
BLOCK
  5
8645
330
8644
100
AcDbEntity
  8
0
100
AcDbBlockBegin
  2
*D4
 70
     1
 10
0.0
 20
0.0
 30
0.0
  3
*D4
  1

  0
LINE
  5
876D
330
8644
100
AcDbEntity
  8
标注
  6
Continuous
370
    -2
100
AcDbLine
 10
1313.81094627491
 20
154.9714849729339
 30
0.0
 11
1319.500571694496
 21
154.9714849729339
 31
0.0
  0
LINE
  5
876E
330
8644
100
AcDbEntity
  8
标注
  6
Continuous
370
    -2
100
AcDbLine
 10
1297.373872849913
 20
134.2215264729588
 30
0.0
 11
1319.500571694496
 21
134.2215264729588
 31
0.0
  0
LINE
  5
876F
330
8644
100
AcDbEntity
  8
标注
  6
Continuous
370
    -2
100
AcDbLine
 10
1319.180571694497
 20
154.3214849729339
 30
0.0
 11
1319.180571694497
 21
146.2854040858675
 31
0.0
  0
LINE
  5
8770
330
8644
100
AcDbEntity
  8
标注
  6
Continuous
370
    -2
100
AcDbLine
 10
1319.180571694497
 20
134.8715264729588
 30
0.0
 11
1319.180571694497
 21
142.907607360083
 31
0.0
  0
MTEXT
  5
8771
330
8644
100
AcDbEntity
  8
标注
100
AcDbMText
 10
1319.180571694526
 20
144.5965057229755
 30
0.0
 40
0.65
 41
0.0
 71
     5
 72
     1
  1
\A1;20 3/4"
 11
0.0000000000000001
 21
1.0
 31
0.0
 73
     1
 44
1.0
1001
ACAD
1000
MTEXTBEGIN
1070
    73
1070
     1
1070
    44
1040
1.0
1070
    74
1070
     0
1000
MTEXTEND
  0
SOLID
  5
8772
330
8644
100
AcDbEntity
  8
标注
100
AcDbTrace
 10
1319.072238361163
 20
154.3214849729339
 30
0.0
 11
1319.28890502783
 21
154.3214849729339
 31
0.0
 12
1319.180571694497
 22
154.9714849729339
 32
0.0
 13
1319.180571694497
 23
154.9714849729339
 33
0.0
  0
SOLID
  5
8773
330
8644
100
AcDbEntity
  8
标注
100
AcDbTrace
 10
1319.072238361163
 20
134.8715264729588
 30
0.0
 11
1319.28890502783
 21
134.8715264729588
 31
0.0
 12
1319.180571694497
 22
134.2215264729588
 32
0.0
 13
1319.180571694497
 23
134.2215264729588
 33
0.0
  0
POINT
  5
8774
330
8644
100
AcDbEntity
  8
DEFPOINTS
 62
     0
100
AcDbPoint
 10
1312.93094627491
 20
154.9714849729339
 30
0.0
  0
POINT
  5
8775
330
8644
100
AcDbEntity
  8
DEFPOINTS
 62
     0
100
AcDbPoint
 10
1296.493872849913
 20
134.2215264729588
 30
0.0
  0
POINT
  5
8776
330
8644
100
AcDbEntity
  8
DEFPOINTS
 62
     0
100
AcDbPoint
 10
1319.180571694497
 20
134.2215264729588
 30
0.0
  0
ENDBLK
  5
8646
330
8644
100
AcDbEntity
  8
0
100
AcDbBlockEnd
  0
BLOCK
  5
8652
330
8651
100
AcDbEntity
  8
0
100
AcDbBlockBegin
  2
*D5
 70
     1
 10
0.0
 20
0.0
 30
0.0
  3
*D5
  1

  0
LINE
  5
8777
330
8651
100
AcDbEntity
  8
标注
  6
Continuous
370
    -2
100
AcDbLine
 10
1313.712521274906
 20
176.1909182495404
 30
0.0
 11
1315.710350809861
 21
176.1909182495404
 31
0.0
  0
LINE
  5
8778
330
8651
100
AcDbEntity
  8
标注
  6
Continuous
370
    -2
100
AcDbLine
 10
1313.712521274906
 20
167.1909362495319
 30
0.0
 11
1315.710350809861
 21
167.1909362495319
 31
0.0
  0
LINE
  5
8779
330
8651
100
AcDbEntity
  8
标注
  6
Continuous
370
    -2
100
AcDbLine
 10
1315.390350809861
 20
175.5409182495404
 30
0.0
 11
1315.390350809861
 21
172.3644777270259
 31
0.0
  0
LINE
  5
877A
330
8651
100
AcDbEntity
  8
标注
  6
Continuous
370
    -2
100
AcDbLine
 10
1315.390350809861
 20
167.8409362495319
 30
0.0
 11
1315.390350809861
 21
171.0173767720464
 31
0.0
  0
SOLID
  5
877B
330
8651
100
AcDbEntity
  8
标注
100
AcDbTrace
 10
1315.282017476528
 20
175.5409182495404
 30
0.0
 11
1315.498684143195
 21
175.5409182495404
 31
0.0
 12
1315.390350809861
 22
176.1909182495404
 32
0.0
 13
1315.390350809861
 23
176.1909182495404
 33
0.0
  0
SOLID
  5
877C
330
8651
100
AcDbEntity
  8
标注
100
AcDbTrace
 10
1315.282017476528
 20
167.8409362495319
 30
0.0
 11
1315.498684143195
 21
167.8409362495319
 31
0.0
 12
1315.390350809861
 22
167.1909362495319
 32
0.0
 13
1315.390350809861
 23
167.1909362495319
 33
0.0
  0
MTEXT
  5
877D
330
8651
100
AcDbEntity
  8
标注
100
AcDbMText
 10
1315.390350809861
 20
171.6909272495364
 30
0.0
 40
0.65
 41
0.0
 71
     5
 72
     1
  1
\A1;9"
 11
0.0000000000000001
 21
1.0
 31
0.0
 73
     1
 44
1.0
1001
ACAD
1000
MTEXTBEGIN
1070
    73
1070
     1
1070
    44
1040
1.0
1070
    74
1070
     0
1000
MTEXTEND
  0
POINT
  5
877E
330
8651
100
AcDbEntity
  8
DEFPOINTS
 62
     0
100
AcDbPoint
 10
1312.832521274906
 20
176.1909182495404
 30
0.0
  0
POINT
  5
877F
330
8651
100
AcDbEntity
  8
DEFPOINTS
 62
     0
100
AcDbPoint
 10
1312.832521274906
 20
167.1909362495319
 30
0.0
  0
POINT
  5
8780
330
8651
100
AcDbEntity
  8
DEFPOINTS
 62
     0
100
AcDbPoint
 10
1315.390350809861
 20
167.1909362495319
 30
0.0
  0
ENDBLK
  5
8653
330
8651
100
AcDbEntity
  8
0
100
AcDbBlockEnd
  0
BLOCK
  5
8660
330
865F
100
AcDbEntity
  8
0
100
AcDbBlockBegin
  2
*D6
 70
     1
 10
0.0
 20
0.0
 30
0.0
  3
*D6
  1

  0
LINE
  5
8819
330
865F
100
AcDbEntity
  8
标注线
 48
5.0
370
    -2
100
AcDbLine
 10
1312.493103582672
 20
115.8323676398272
 30
0.0
 11
1315.202277365724
 21
115.8323676398272
 31
0.0
  0
LINE
  5
881A
330
865F
100
AcDbEntity
  8
标注线
 48
5.0
370
    -2
100
AcDbLine
 10
1312.493103582672
 20
97.13240515890214
 30
0.0
 11
1315.202277365724
 21
97.13240515890214
 31
0.0
  0
LINE
  5
881B
330
865F
100
AcDbEntity
  8
标注线
 48
5.0
370
    -2
100
AcDbLine
 10
1314.882277365724
 20
115.1823676398272
 30
0.0
 11
1314.882277365724
 21
108.1351490187371
 31
0.0
  0
LINE
  5
881C
330
865F
100
AcDbEntity
  8
标注线
 48
5.0
370
    -2
100
AcDbLine
 10
1314.882277365724
 20
97.78240515890216
 30
0.0
 11
1314.882277365724
 21
104.8296237799922
 31
0.0
  0
SOLID
  5
881D
330
865F
100
AcDbEntity
  8
标注线
 48
5.0
100
AcDbTrace
 10
1314.773944032391
 20
115.1823676398272
 30
0.0
 11
1314.990610699058
 21
115.1823676398272
 31
0.0
 12
1314.882277365724
 22
115.8323676398272
 32
0.0
 13
1314.882277365724
 23
115.8323676398272
 33
0.0
  0
SOLID
  5
881E
330
865F
100
AcDbEntity
  8
标注线
 48
5.0
100
AcDbTrace
 10
1314.773944032391
 20
97.78240515890216
 30
0.0
 11
1314.990610699058
 21
97.78240515890216
 31
0.0
 12
1314.882277365724
 22
97.13240515890214
 32
0.0
 13
1314.882277365724
 23
97.13240515890214
 33
0.0
  0
MTEXT
  5
881F
330
865F
100
AcDbEntity
  8
标注线
 48
5.0
100
AcDbMText
 10
1314.882277365724
 20
106.4823863993649
 30
0.0
 40
0.65
 41
0.0
 71
     5
 72
     1
  1
\A1;18 3/4"
 11
0.0000000000000001
 21
1.0
 31
0.0
 73
     1
 44
1.0
1001
ACAD
1000
MTEXTBEGIN
1070
    73
1070
     1
1070
    44
1040
1.0
1070
    74
1070
     0
1000
MTEXTEND
  0
POINT
  5
8820
330
865F
100
AcDbEntity
  8
DEFPOINTS
 62
     0
 48
5.0
100
AcDbPoint
 10
1311.613103582671
 20
115.8323676398272
 30
0.0
  0
POINT
  5
8821
330
865F
100
AcDbEntity
  8
DEFPOINTS
 62
     0
 48
5.0
100
AcDbPoint
 10
1311.613103582671
 20
97.1324051589022
 30
0.0
  0
POINT
  5
8822
330
865F
100
AcDbEntity
  8
DEFPOINTS
 62
     0
 48
5.0
100
AcDbPoint
 10
1314.882277365724
 20
97.13240515890214
 30
0.0
  0
ENDBLK
  5
8661
330
865F
100
AcDbEntity
  8
0
100
AcDbBlockEnd
  0
BLOCK
  5
8678
330
8677
100
AcDbEntity
  8
0
100
AcDbBlockBegin
  2
*D7
 70
     1
 10
0.0
 20
0.0
 30
0.0
  3
*D7
  1

  0
LINE
  5
87DA
330
8677
100
AcDbEntity
  8
标注
  6
Continuous
370
    -2
100
AcDbLine
 10
1279.275224424905
 20
176.1909182495404
 30
0.0
 11
1277.569130957598
 21
176.1909182495404
 31
0.0
  0
LINE
  5
87DB
330
8677
100
AcDbEntity
  8
标注
  6
Continuous
370
    -2
100
AcDbLine
 10
1279.297730332591
 20
166.1907074628655
 30
0.0
 11
1277.569130957598
 21
166.1907074628655
 31
0.0
  0
LINE
  5
87DC
330
8677
100
AcDbEntity
  8
标注
  6
Continuous
370
    -2
100
AcDbLine
 10
1277.889130957598
 20
175.5409182495404
 30
0.0
 11
1277.889130957598
 21
172.0862767034062
 31
0.0
  0
LINE
  5
87DD
330
8677
100
AcDbEntity
  8
标注
  6
Continuous
370
    -2
100
AcDbLine
 10
1277.889130957598
 20
166.8407074628655
 30
0.0
 11
1277.889130957598
 21
170.2953490089997
 31
0.0
  0
SOLID
  5
87DE
330
8677
100
AcDbEntity
  8
标注
100
AcDbTrace
 10
1277.780797624264
 20
175.5409182495404
 30
0.0
 11
1277.997464290931
 21
175.5409182495404
 31
0.0
 12
1277.889130957598
 22
176.1909182495404
 32
0.0
 13
1277.889130957598
 23
176.1909182495404
 33
0.0
  0
SOLID
  5
87DF
330
8677
100
AcDbEntity
  8
标注
100
AcDbTrace
 10
1277.780797624264
 20
166.8407074628655
 30
0.0
 11
1277.997464290931
 21
166.8407074628655
 31
0.0
 12
1277.889130957598
 22
166.1907074628655
 32
0.0
 13
1277.889130957598
 23
166.1907074628655
 33
0.0
  0
MTEXT
  5
87E0
330
8677
100
AcDbEntity
  8
标注
100
AcDbMText
 10
1277.889130957598
 20
171.1908128562031
 30
0.0
 40
0.65
 41
0.0
 71
     5
 72
     1
  1
\A1;10"
 11
0.0000000000000001
 21
1.0
 31
0.0
 73
     1
 44
1.0
1001
ACAD
1000
MTEXTBEGIN
1070
    73
1070
     1
1070
    44
1040
1.0
1070
    74
1070
     0
1000
MTEXTEND
  0
POINT
  5
87E1
330
8677
100
AcDbEntity
  8
DEFPOINTS
 62
     0
100
AcDbPoint
 10
1280.155224424905
 20
176.1909182495404
 30
0.0
  0
POINT
  5
87E2
330
8677
100
AcDbEntity
  8
DEFPOINTS
 62
     0
100
AcDbPoint
 10
1280.177730332592
 20
166.1907074628655
 30
0.0
  0
POINT
  5
87E3
330
8677
100
AcDbEntity
  8
DEFPOINTS
 62
     0
100
AcDbPoint
 10
1277.889130957598
 20
166.1907074628655
 30
0.0
  0
ENDBLK
  5
8679
330
8677
100
AcDbEntity
  8
0
100
AcDbBlockEnd
  0
BLOCK
  5
8686
330
8685
100
AcDbEntity
  8
0
100
AcDbBlockBegin
  2
*D8
 70
     1
 10
0.0
 20
0.0
 30
0.0
  3
*D8
  1

  0
LINE
  5
8823
330
8685
100
AcDbEntity
  8
标注线
 48
5.0
370
    -2
100
AcDbLine
 10
1281.455486732668
 20
96.25240515890221
 30
0.0
 11
1281.455486732668
 21
93.66529880235772
 31
0.0
  0
LINE
  5
8824
330
8685
100
AcDbEntity
  8
标注线
 48
5.0
370
    -2
100
AcDbLine
 10
1311.613103582671
 20
96.25240515890221
 30
0.0
 11
1311.613103582671
 21
93.66529880235772
 31
0.0
  0
LINE
  5
8825
330
8685
100
AcDbEntity
  8
标注线
 48
5.0
370
    -2
100
AcDbLine
 10
1282.105486732668
 20
93.98529880235768
 30
0.0
 11
1294.851160778407
 21
93.98529880235768
 31
0.0
  0
LINE
  5
8826
330
8685
100
AcDbEntity
  8
标注线
 48
5.0
370
    -2
100
AcDbLine
 10
1310.963103582671
 20
93.98529880235768
 30
0.0
 11
1298.217429536933
 21
93.98529880235768
 31
0.0
  0
SOLID
  5
8827
330
8685
100
AcDbEntity
  8
标注线
 48
5.0
100
AcDbTrace
 10
1282.105486732668
 20
94.09363213569099
 30
0.0
 11
1282.105486732668
 21
93.87696546902436
 31
0.0
 12
1281.455486732668
 22
93.98529880235768
 32
0.0
 13
1281.455486732668
 23
93.98529880235768
 33
0.0
  0
SOLID
  5
8828
330
8685
100
AcDbEntity
  8
标注线
 48
5.0
100
AcDbTrace
 10
1310.963103582671
 20
94.09363213569099
 30
0.0
 11
1310.963103582671
 21
93.87696546902436
 31
0.0
 12
1311.613103582671
 22
93.98529880235768
 32
0.0
 13
1311.613103582671
 23
93.98529880235768
 33
0.0
  0
MTEXT
  5
8829
330
8685
100
AcDbEntity
  8
标注线
 48
5.0
100
AcDbMText
 10
1296.53429515767
 20
93.98529880235768
 30
0.0
 40
0.65
 41
0.0
 71
     5
 72
     1
  1
\A1;30 1/8"
 73
     1
 44
1.0
1001
ACAD
1000
MTEXTBEGIN
1070
    73
1070
     1
1070
    44
1040
1.0
1070
    74
1070
     0
1000
MTEXTEND
  0
POINT
  5
882A
330
8685
100
AcDbEntity
  8
DEFPOINTS
 62
     0
 48
5.0
100
AcDbPoint
 10
1281.455486732668
 20
97.1324051589022
 30
0.0
  0
POINT
  5
882B
330
8685
100
AcDbEntity
  8
DEFPOINTS
 62
     0
 48
5.0
100
AcDbPoint
 10
1311.613103582671
 20
97.1324051589022
 30
0.0
  0
POINT
  5
882C
330
8685
100
AcDbEntity
  8
DEFPOINTS
 62
     0
 48
5.0
100
AcDbPoint
 10
1311.613103582671
 20
93.98529880235768
 30
0.0
  0
ENDBLK
  5
8687
330
8685
100
AcDbEntity
  8
0
100
AcDbBlockEnd
  0
BLOCK
  5
86BB
330
86BA
100
AcDbEntity
  8
0
100
AcDbBlockBegin
  2
*D9
 70
     1
 10
0.0
 20
0.0
 30
0.0
  3
*D9
  1

  0
LINE
  5
87FB
330
86BA
100
AcDbEntity
  8
标注线
 48
5.0
370
    -2
100
AcDbLine
 10
1296.993871849905
 20
136.5915199729385
 30
0.0
 11
1296.993871849905
 21
132.2002470845155
 31
0.0
  0
LINE
  5
87FC
330
86BA
100
AcDbEntity
  8
标注线
 48
5.0
370
    -2
100
AcDbLine
 10
1311.49394127491
 20
136.5915199729385
 30
0.0
 11
1311.49394127491
 21
132.2002470845155
 31
0.0
  0
LINE
  5
87FD
330
86BA
100
AcDbEntity
  8
标注线
 48
5.0
370
    -2
100
AcDbLine
 10
1297.643871849906
 20
132.5202470845155
 30
0.0
 11
1302.591143943035
 21
132.5202470845155
 31
0.0
  0
LINE
  5
87FE
330
86BA
100
AcDbEntity
  8
标注线
 48
5.0
370
    -2
100
AcDbLine
 10
1310.84394127491
 20
132.5202470845155
 30
0.0
 11
1305.89666918178
 21
132.5202470845155
 31
0.0
  0
SOLID
  5
87FF
330
86BA
100
AcDbEntity
  8
标注线
 48
5.0
100
AcDbTrace
 10
1297.643871849906
 20
132.6285804178488
 30
0.0
 11
1297.643871849906
 21
132.4119137511821
 31
0.0
 12
1296.993871849905
 22
132.5202470845155
 32
0.0
 13
1296.993871849905
 23
132.5202470845155
 33
0.0
  0
SOLID
  5
8800
330
86BA
100
AcDbEntity
  8
标注线
 48
5.0
100
AcDbTrace
 10
1310.84394127491
 20
132.6285804178488
 30
0.0
 11
1310.84394127491
 21
132.4119137511821
 31
0.0
 12
1311.49394127491
 22
132.5202470845155
 32
0.0
 13
1311.49394127491
 23
132.5202470845155
 33
0.0
  0
MTEXT
  5
8801
330
86BA
100
AcDbEntity
  8
标注线
 48
5.0
100
AcDbMText
 10
1304.243906562408
 20
132.5202470845155
 30
0.0
 40
0.65
 41
0.0
 71
     5
 72
     1
  1
\A1;14 1/2"
 73
     1
 44
1.0
1001
ACAD
1000
MTEXTBEGIN
1070
    73
1070
     1
1070
    44
1040
1.0
1070
    74
1070
     0
1000
MTEXTEND
  0
POINT
  5
8802
330
86BA
100
AcDbEntity
  8
DEFPOINTS
 62
     0
 48
5.0
100
AcDbPoint
 10
1296.993871849905
 20
137.4715199729384
 30
0.0
  0
POINT
  5
8803
330
86BA
100
AcDbEntity
  8
DEFPOINTS
 62
     0
 48
5.0
100
AcDbPoint
 10
1311.49394127491
 20
137.4715199729384
 30
0.0
  0
POINT
  5
8804
330
86BA
100
AcDbEntity
  8
DEFPOINTS
 62
     0
 48
5.0
100
AcDbPoint
 10
1311.49394127491
 20
132.5202470845155
 30
0.0
  0
ENDBLK
  5
86BC
330
86BA
100
AcDbEntity
  8
0
100
AcDbBlockEnd
  0
BLOCK
  5
8969
330
8968
100
AcDbEntity
  8
0
100
AcDbBlockBegin
  2
*D10
 70
     1
 10
0.0
 20
0.0
 30
0.0
  3
*D10
  1

  0
LINE
  5
8A1A
330
8968
100
AcDbEntity
  8
标注线
 48
5.0
370
    -2
100
AcDbLine
 10
1369.021459276496
 20
136.7952567081138
 30
0.0
 11
1369.021459276496
 21
133.9128341796536
 31
0.0
  0
LINE
  5
8A1B
330
8968
100
AcDbEntity
  8
标注线
 48
5.0
370
    -2
100
AcDbLine
 10
1399.021399276505
 20
136.7952567081138
 30
0.0
 11
1399.021399276505
 21
133.9128341796536
 31
0.0
  0
LINE
  5
8A1C
330
8968
100
AcDbEntity
  8
标注线
 48
5.0
370
    -2
100
AcDbLine
 10
1369.671459276496
 20
134.2328341796536
 30
0.0
 11
1383.095593669406
 21
134.2328341796536
 31
0.0
  0
LINE
  5
8A1D
330
8968
100
AcDbEntity
  8
标注线
 48
5.0
370
    -2
100
AcDbLine
 10
1398.371399276505
 20
134.2328341796536
 30
0.0
 11
1384.947264883594
 21
134.2328341796536
 31
0.0
  0
MTEXT
  5
8A1E
330
8968
100
AcDbEntity
  8
标注线
 48
5.0
100
AcDbMText
 10
1384.0214292765
 20
134.2328341796536
 30
0.0
 40
0.65
 41
0.0
 71
     5
 72
     1
  1
\A1;30"
 73
     1
 44
1.0
1001
ACAD
1000
MTEXTBEGIN
1070
    73
1070
     1
1070
    44
1040
1.0
1070
    74
1070
     0
1000
MTEXTEND
  0
SOLID
  5
8A1F
330
8968
100
AcDbEntity
  8
标注线
 48
5.0
100
AcDbTrace
 10
1369.671459276496
 20
134.3411675129869
 30
0.0
 11
1369.671459276496
 21
134.1245008463203
 31
0.0
 12
1369.021459276496
 22
134.2328341796536
 32
0.0
 13
1369.021459276496
 23
134.2328341796536
 33
0.0
  0
SOLID
  5
8A20
330
8968
100
AcDbEntity
  8
标注线
 48
5.0
100
AcDbTrace
 10
1398.371399276505
 20
134.3411675129869
 30
0.0
 11
1398.371399276505
 21
134.1245008463203
 31
0.0
 12
1399.021399276505
 22
134.2328341796536
 32
0.0
 13
1399.021399276505
 23
134.2328341796536
 33
0.0
  0
POINT
  5
8A21
330
8968
100
AcDbEntity
  8
DEFPOINTS
 62
     0
 48
5.0
100
AcDbPoint
 10
1369.021459276496
 20
137.6752567081138
 30
0.0
  0
POINT
  5
8A22
330
8968
100
AcDbEntity
  8
DEFPOINTS
 62
     0
 48
5.0
100
AcDbPoint
 10
1399.021399276505
 20
137.6752567081138
 30
0.0
  0
POINT
  5
8A23
330
8968
100
AcDbEntity
  8
DEFPOINTS
 62
     0
 48
5.0
100
AcDbPoint
 10
1399.021399276505
 20
134.2328341796536
 30
0.0
  0
ENDBLK
  5
896A
330
8968
100
AcDbEntity
  8
0
100
AcDbBlockEnd
  0
BLOCK
  5
8976
330
8975
100
AcDbEntity
  8
0
100
AcDbBlockBegin
  2
*D11
 70
     1
 10
0.0
 20
0.0
 30
0.0
  3
*D11
  1

  0
LINE
  5
8A24
330
8975
100
AcDbEntity
  8
标注线
 48
5.0
370
    -2
100
AcDbLine
 10
1400.295099276505
 20
156.0689207081167
 30
0.0
 11
1403.640340201665
 21
156.0689207081167
 31
0.0
  0
LINE
  5
8A25
330
8975
100
AcDbEntity
  8
标注线
 48
5.0
370
    -2
100
AcDbLine
 10
1400.295099276505
 20
138.0689567081143
 30
0.0
 11
1403.640340201665
 21
138.0689567081143
 31
0.0
  0
LINE
  5
8A26
330
8975
100
AcDbEntity
  8
标注线
 48
5.0
370
    -2
100
AcDbLine
 10
1403.320340201665
 20
155.4189207081166
 30
0.0
 11
1403.320340201665
 21
147.9644025553404
 31
0.0
  0
LINE
  5
8A27
330
8975
100
AcDbEntity
  8
标注线
 48
5.0
370
    -2
100
AcDbLine
 10
1403.320340201665
 20
138.7189567081143
 30
0.0
 11
1403.320340201665
 21
146.1734748609338
 31
0.0
  0
MTEXT
  5
8A28
330
8975
100
AcDbEntity
  8
标注线
 48
5.0
100
AcDbMText
 10
1403.32034020168
 20
147.0689387081373
 30
0.0
 40
0.65
 41
0.0
 71
     5
 72
     1
  1
\A1;18"
 11
0.0000000000000001
 21
1.0
 31
0.0
 73
     1
 44
1.0
1001
ACAD
1000
MTEXTBEGIN
1070
    73
1070
     1
1070
    44
1040
1.0
1070
    74
1070
     0
1000
MTEXTEND
  0
SOLID
  5
8A29
330
8975
100
AcDbEntity
  8
标注线
 48
5.0
100
AcDbTrace
 10
1403.212006868332
 20
155.4189207081166
 30
0.0
 11
1403.428673534999
 21
155.4189207081166
 31
0.0
 12
1403.320340201665
 22
156.0689207081167
 32
0.0
 13
1403.320340201665
 23
156.0689207081167
 33
0.0
  0
SOLID
  5
8A2A
330
8975
100
AcDbEntity
  8
标注线
 48
5.0
100
AcDbTrace
 10
1403.212006868332
 20
138.7189567081143
 30
0.0
 11
1403.428673534999
 21
138.7189567081143
 31
0.0
 12
1403.320340201665
 22
138.0689567081143
 32
0.0
 13
1403.320340201665
 23
138.0689567081143
 33
0.0
  0
POINT
  5
8A2B
330
8975
100
AcDbEntity
  8
DEFPOINTS
 62
     0
 48
5.0
100
AcDbPoint
 10
1399.415099276505
 20
156.0689207081167
 30
0.0
  0
POINT
  5
8A2C
330
8975
100
AcDbEntity
  8
DEFPOINTS
 62
     0
 48
5.0
100
AcDbPoint
 10
1399.415099276505
 20
138.0689567081143
 30
0.0
  0
POINT
  5
8A2D
330
8975
100
AcDbEntity
  8
DEFPOINTS
 62
     0
 48
5.0
100
AcDbPoint
 10
1403.320340201665
 20
138.0689567081143
 30
0.0
  0
ENDBLK
  5
8977
330
8975
100
AcDbEntity
  8
0
100
AcDbBlockEnd
  0
BLOCK
  5
8983
330
8982
100
AcDbEntity
  8
0
100
AcDbBlockBegin
  2
*D12
 70
     1
 10
0.0
 20
0.0
 30
0.0
  3
*D12
  1

  0
LINE
  5
8BBB
330
8982
100
AcDbEntity
  8
标注线
 48
5.0
370
    -2
100
AcDbLine
 10
1400.295099276505
 20
155.0689227081173
 30
0.0
 11
1401.629899276493
 21
155.0689227081173
 31
0.0
  0
LINE
  5
8BBC
330
8982
100
AcDbEntity
  8
标注线
 48
5.0
370
    -2
100
AcDbLine
 10
1400.295099276505
 20
139.0689547081136
 30
0.0
 11
1401.629899276493
 21
139.0689547081136
 31
0.0
  0
LINE
  5
8BBD
330
8982
100
AcDbEntity
  8
标注线
 48
5.0
370
    -2
100
AcDbLine
 10
1401.309899276493
 20
154.4189227081173
 30
0.0
 11
1401.309899276493
 21
147.9644025553404
 31
0.0
  0
LINE
  5
8BBE
330
8982
100
AcDbEntity
  8
标注线
 48
5.0
370
    -2
100
AcDbLine
 10
1401.309899276493
 20
139.7189547081136
 30
0.0
 11
1401.309899276493
 21
146.1734748609338
 31
0.0
  0
MTEXT
  5
8BBF
330
8982
100
AcDbEntity
  8
标注线
 48
5.0
100
AcDbMText
 10
1401.309899276508
 20
147.0689387081373
 30
0.0
 40
0.65
 41
0.0
 71
     5
 72
     1
  1
\A1;16"
 11
0.0000000000000001
 21
1.0
 31
0.0
 73
     1
 44
1.0
1001
ACAD
1000
MTEXTBEGIN
1070
    73
1070
     1
1070
    44
1040
1.0
1070
    74
1070
     0
1000
MTEXTEND
  0
SOLID
  5
8BC0
330
8982
100
AcDbEntity
  8
标注线
 48
5.0
100
AcDbTrace
 10
1401.20156594316
 20
154.4189227081173
 30
0.0
 11
1401.418232609826
 21
154.4189227081173
 31
0.0
 12
1401.309899276493
 22
155.0689227081173
 32
0.0
 13
1401.309899276493
 23
155.0689227081173
 33
0.0
  0
SOLID
  5
8BC1
330
8982
100
AcDbEntity
  8
标注线
 48
5.0
100
AcDbTrace
 10
1401.20156594316
 20
139.7189547081136
 30
0.0
 11
1401.418232609826
 21
139.7189547081136
 31
0.0
 12
1401.309899276493
 22
139.0689547081136
 32
0.0
 13
1401.309899276493
 23
139.0689547081136
 33
0.0
  0
POINT
  5
8BC2
330
8982
100
AcDbEntity
  8
DEFPOINTS
 62
     0
 48
5.0
100
AcDbPoint
 10
1399.415099276505
 20
155.0689227081173
 30
0.0
  0
POINT
  5
8BC3
330
8982
100
AcDbEntity
  8
DEFPOINTS
 62
     0
 48
5.0
100
AcDbPoint
 10
1399.415099276505
 20
139.0689547081136
 30
0.0
  0
POINT
  5
8BC4
330
8982
100
AcDbEntity
  8
DEFPOINTS
 62
     0
 48
5.0
100
AcDbPoint
 10
1401.309899276493
 20
139.0689547081136
 30
0.0
  0
ENDBLK
  5
8984
330
8982
100
AcDbEntity
  8
0
100
AcDbBlockEnd
  0
BLOCK
  5
8990
330
898F
100
AcDbEntity
  8
0
100
AcDbBlockBegin
  2
*D13
 70
     1
 10
0.0
 20
0.0
 30
0.0
  3
*D13
  1

  0
LINE
  5
8A38
330
898F
100
AcDbEntity
  8
标注线
 48
5.0
370
    -2
100
AcDbLine
 10
1370.021457276495
 20
136.7952567081138
 30
0.0
 11
1370.021457276495
 21
135.7804567081116
 31
0.0
  0
LINE
  5
8A39
330
898F
100
AcDbEntity
  8
标注线
 48
5.0
370
    -2
100
AcDbLine
 10
1398.021401276505
 20
136.7952567081138
 30
0.0
 11
1398.021401276505
 21
135.7804567081116
 31
0.0
  0
LINE
  5
8A3A
330
898F
100
AcDbEntity
  8
标注线
 48
5.0
370
    -2
100
AcDbLine
 10
1370.671457276495
 20
136.1004567081115
 30
0.0
 11
1383.089829685778
 21
136.1004567081115
 31
0.0
  0
LINE
  5
8A3B
330
898F
100
AcDbEntity
  8
标注线
 48
5.0
370
    -2
100
AcDbLine
 10
1397.371401276505
 20
136.1004567081115
 30
0.0
 11
1384.953028867223
 21
136.1004567081115
 31
0.0
  0
SOLID
  5
8A3C
330
898F
100
AcDbEntity
  8
标注线
 48
5.0
100
AcDbTrace
 10
1370.671457276495
 20
136.2087900414449
 30
0.0
 11
1370.671457276495
 21
135.9921233747783
 31
0.0
 12
1370.021457276495
 22
136.1004567081115
 32
0.0
 13
1370.021457276495
 23
136.1004567081115
 33
0.0
  0
SOLID
  5
8A3D
330
898F
100
AcDbEntity
  8
标注线
 48
5.0
100
AcDbTrace
 10
1397.371401276505
 20
136.2087900414449
 30
0.0
 11
1397.371401276505
 21
135.9921233747783
 31
0.0
 12
1398.021401276505
 22
136.1004567081115
 32
0.0
 13
1398.021401276505
 23
136.1004567081115
 33
0.0
  0
MTEXT
  5
8A3E
330
898F
100
AcDbEntity
  8
标注线
 48
5.0
100
AcDbMText
 10
1384.0214292765
 20
136.1004567081115
 30
0.0
 40
0.65
 41
0.0
 71
     5
 72
     1
  1
\A1;28"
 73
     1
 44
1.0
1001
ACAD
1000
MTEXTBEGIN
1070
    73
1070
     1
1070
    44
1040
1.0
1070
    74
1070
     0
1000
MTEXTEND
  0
POINT
  5
8A3F
330
898F
100
AcDbEntity
  8
DEFPOINTS
 62
     0
 48
5.0
100
AcDbPoint
 10
1370.021457276495
 20
137.6752567081138
 30
0.0
  0
POINT
  5
8A40
330
898F
100
AcDbEntity
  8
DEFPOINTS
 62
     0
 48
5.0
100
AcDbPoint
 10
1398.021401276505
 20
137.6752567081138
 30
0.0
  0
POINT
  5
8A41
330
898F
100
AcDbEntity
  8
DEFPOINTS
 62
     0
 48
5.0
100
AcDbPoint
 10
1398.021401276505
 20
136.1004567081115
 30
0.0
  0
ENDBLK
  5
8991
330
898F
100
AcDbEntity
  8
0
100
AcDbBlockEnd
  0
BLOCK
  5
89C5
330
89C4
100
AcDbEntity
  8
0
100
AcDbBlockBegin
  2
*D14
 70
     1
 10
0.0
 20
0.0
 30
0.0
  3
*D14
  1

  0
LINE
  5
8A06
330
89C4
100
AcDbEntity
  8
标注线
 48
5.0
370
    -2
100
AcDbLine
 10
1370.021457276495
 20
101.7968589123414
 30
0.0
 11
1370.021457276495
 21
99.99987259630408
 31
0.0
  0
LINE
  5
8A07
330
89C4
100
AcDbEntity
  8
标注线
 48
5.0
370
    -2
100
AcDbLine
 10
1398.1788812765
 20
101.7968589123414
 30
0.0
 11
1398.1788812765
 21
99.99987259630408
 31
0.0
  0
LINE
  5
8A08
330
89C4
100
AcDbEntity
  8
标注线
 48
5.0
370
    -2
100
AcDbLine
 10
1370.671457276495
 20
100.3198725963041
 30
0.0
 11
1382.411270913606
 21
100.3198725963041
 31
0.0
  0
LINE
  5
8A09
330
89C4
100
AcDbEntity
  8
标注线
 48
5.0
370
    -2
100
AcDbLine
 10
1397.5288812765
 20
100.3198725963041
 30
0.0
 11
1385.78906763939
 21
100.3198725963041
 31
0.0
  0
SOLID
  5
8A0A
330
89C4
100
AcDbEntity
  8
标注线
 48
5.0
100
AcDbTrace
 10
1370.671457276495
 20
100.4282059296374
 30
0.0
 11
1370.671457276495
 21
100.2115392629707
 31
0.0
 12
1370.021457276495
 22
100.3198725963041
 32
0.0
 13
1370.021457276495
 23
100.3198725963041
 33
0.0
  0
SOLID
  5
8A0B
330
89C4
100
AcDbEntity
  8
标注线
 48
5.0
100
AcDbTrace
 10
1397.5288812765
 20
100.4282059296374
 30
0.0
 11
1397.5288812765
 21
100.2115392629707
 31
0.0
 12
1398.1788812765
 22
100.3198725963041
 32
0.0
 13
1398.1788812765
 23
100.3198725963041
 33
0.0
  0
MTEXT
  5
8A0C
330
89C4
100
AcDbEntity
  8
标注线
 48
5.0
100
AcDbMText
 10
1384.100169276498
 20
100.3198725963041
 30
0.0
 40
0.65
 41
0.0
 71
     5
 72
     1
  1
\A1;28 1/8"
 73
     1
 44
1.0
1001
ACAD
1000
MTEXTBEGIN
1070
    73
1070
     1
1070
    44
1040
1.0
1070
    74
1070
     0
1000
MTEXTEND
  0
POINT
  5
8A0D
330
89C4
100
AcDbEntity
  8
DEFPOINTS
 62
     0
 48
5.0
100
AcDbPoint
 10
1370.021457276495
 20
102.6768589123414
 30
0.0
  0
POINT
  5
8A0E
330
89C4
100
AcDbEntity
  8
DEFPOINTS
 62
     0
 48
5.0
100
AcDbPoint
 10
1398.1788812765
 20
102.6768589123414
 30
0.0
  0
POINT
  5
8A0F
330
89C4
100
AcDbEntity
  8
DEFPOINTS
 62
     0
 48
5.0
100
AcDbPoint
 10
1398.1788812765
 20
100.3198725963041
 30
0.0
  0
ENDBLK
  5
89C6
330
89C4
100
AcDbEntity
  8
0
100
AcDbBlockEnd
  0
BLOCK
  5
89D2
330
89D1
100
AcDbEntity
  8
0
100
AcDbBlockBegin
  2
*D15
 70
     1
 10
0.0
 20
0.0
 30
0.0
  3
*D15
  1

  0
LINE
  5
8A10
330
89D1
100
AcDbEntity
  8
标注线
 48
5.0
370
    -2
100
AcDbLine
 10
1399.0588812765
 20
118.8343069123396
 30
0.0
 11
1400.742646127699
 21
118.8343069123396
 31
0.0
  0
LINE
  5
8A11
330
89D1
100
AcDbEntity
  8
标注线
 48
5.0
370
    -2
100
AcDbLine
 10
1399.0588812765
 20
102.6768589123414
 30
0.0
 11
1400.742646127699
 21
102.6768589123414
 31
0.0
  0
LINE
  5
8A12
330
89D1
100
AcDbEntity
  8
标注线
 48
5.0
370
    -2
100
AcDbLine
 10
1400.422646127698
 20
118.1843069123395
 30
0.0
 11
1400.422646127698
 21
112.4083455317129
 31
0.0
  0
LINE
  5
8A13
330
89D1
100
AcDbEntity
  8
标注线
 48
5.0
370
    -2
100
AcDbLine
 10
1400.422646127698
 20
103.3268589123414
 30
0.0
 11
1400.422646127698
 21
109.102820292968
 31
0.0
  0
SOLID
  5
8A14
330
89D1
100
AcDbEntity
  8
标注线
 48
5.0
100
AcDbTrace
 10
1400.314312794365
 20
118.1843069123395
 30
0.0
 11
1400.530979461032
 21
118.1843069123395
 31
0.0
 12
1400.422646127698
 22
118.8343069123396
 32
0.0
 13
1400.422646127698
 23
118.8343069123396
 33
0.0
  0
SOLID
  5
8A15
330
89D1
100
AcDbEntity
  8
标注线
 48
5.0
100
AcDbTrace
 10
1400.314312794365
 20
103.3268589123414
 30
0.0
 11
1400.530979461032
 21
103.3268589123414
 31
0.0
 12
1400.422646127698
 22
102.6768589123414
 32
0.0
 13
1400.422646127698
 23
102.6768589123414
 33
0.0
  0
MTEXT
  5
8A16
330
89D1
100
AcDbEntity
  8
标注线
 48
5.0
100
AcDbMText
 10
1400.422646127698
 20
110.7555829123407
 30
0.0
 40
0.65
 41
0.0
 71
     5
 72
     1
  1
\A1;16 1/8"
 11
0.0000000000000001
 21
1.0
 31
0.0
 73
     1
 44
1.0
1001
ACAD
1000
MTEXTBEGIN
1070
    73
1070
     1
1070
    44
1040
1.0
1070
    74
1070
     0
1000
MTEXTEND
  0
POINT
  5
8A17
330
89D1
100
AcDbEntity
  8
DEFPOINTS
 62
     0
 48
5.0
100
AcDbPoint
 10
1398.1788812765
 20
118.8343069123396
 30
0.0
  0
POINT
  5
8A18
330
89D1
100
AcDbEntity
  8
DEFPOINTS
 62
     0
 48
5.0
100
AcDbPoint
 10
1398.1788812765
 20
102.6768589123414
 30
0.0
  0
POINT
  5
8A19
330
89D1
100
AcDbEntity
  8
DEFPOINTS
 62
     0
 48
5.0
100
AcDbPoint
 10
1400.422646127698
 20
102.6768589123414
 30
0.0
  0
ENDBLK
  5
89D3
330
89D1
100
AcDbEntity
  8
0
100
AcDbBlockEnd
  0
BLOCK
  5
8A44
330
8A43
100
AcDbEntity
  8
0
100
AcDbBlockBegin
  2
*D16
 70
     1
 10
0.0
 20
0.0
 30
0.0
  3
*D16
  1

  0
LINE
  5
8BB1
330
8A43
100
AcDbEntity
  8
标注线
 48
5.0
370
    -2
100
AcDbLine
 10
1398.815524716133
 20
166.8495581917554
 30
0.0
 11
1400.940995132308
 21
166.8495581917554
 31
0.0
  0
LINE
  5
8BB2
330
8A43
100
AcDbEntity
  8
标注线
 48
5.0
370
    -2
100
AcDbLine
 10
1399.901399276505
 20
176.8578800556799
 30
0.0
 11
1400.940995132308
 21
176.8578800556799
 31
0.0
  0
LINE
  5
8BB3
330
8A43
100
AcDbEntity
  8
标注线
 48
5.0
370
    -2
100
AcDbLine
 10
1400.620995132308
 20
167.4995581917554
 30
0.0
 11
1400.620995132308
 21
170.9582552765144
 31
0.0
  0
LINE
  5
8BB4
330
8A43
100
AcDbEntity
  8
标注线
 48
5.0
370
    -2
100
AcDbLine
 10
1400.620995132308
 20
176.20788005568
 30
0.0
 11
1400.620995132308
 21
172.7491829709209
 31
0.0
  0
SOLID
  5
8BB5
330
8A43
100
AcDbEntity
  8
标注线
 48
5.0
100
AcDbTrace
 10
1400.512661798974
 20
167.4995581917554
 30
0.0
 11
1400.729328465641
 21
167.4995581917554
 31
0.0
 12
1400.620995132308
 22
166.8495581917554
 32
0.0
 13
1400.620995132308
 23
166.8495581917554
 33
0.0
  0
SOLID
  5
8BB6
330
8A43
100
AcDbEntity
  8
标注线
 48
5.0
100
AcDbTrace
 10
1400.512661798974
 20
176.20788005568
 30
0.0
 11
1400.729328465641
 21
176.20788005568
 31
0.0
 12
1400.620995132308
 22
176.8578800556799
 32
0.0
 13
1400.620995132308
 23
176.8578800556799
 33
0.0
  0
MTEXT
  5
8BB7
330
8A43
100
AcDbEntity
  8
标注线
 48
5.0
100
AcDbMText
 10
1400.620995132308
 20
171.8537191237179
 30
0.0
 40
0.65
 41
0.0
 71
     5
 72
     1
  1
\A1;10"
 11
0.0000000000000001
 21
1.0
 31
0.0
 73
     1
 44
1.0
1001
ACAD
1000
MTEXTBEGIN
1070
    73
1070
     1
1070
    44
1040
1.0
1070
    74
1070
     0
1000
MTEXTEND
  0
POINT
  5
8BB8
330
8A43
100
AcDbEntity
  8
DEFPOINTS
 62
     0
 48
5.0
100
AcDbPoint
 10
1397.935524716133
 20
166.8495581917554
 30
0.0
  0
POINT
  5
8BB9
330
8A43
100
AcDbEntity
  8
DEFPOINTS
 62
     0
 48
5.0
100
AcDbPoint
 10
1399.021399276505
 20
176.8578800556799
 30
0.0
  0
POINT
  5
8BBA
330
8A43
100
AcDbEntity
  8
DEFPOINTS
 62
     0
 48
5.0
100
AcDbPoint
 10
1400.620995132308
 20
176.8578800556799
 30
0.0
  0
ENDBLK
  5
8A45
330
8A43
100
AcDbEntity
  8
0
100
AcDbBlockEnd
  0
BLOCK
  5
8C02
330
8C01
100
AcDbEntity
  8
0
 48
5.0
100
AcDbBlockBegin
  2
*D17
 70
     1
 10
0.0
 20
0.0
 30
0.0
  3
*D17
  1

  0
LINE
  5
8C03
330
8C01
100
AcDbEntity
  8
标注
  6
Continuous
 48
5.0
370
    -2
100
AcDbLine
 10
194399.8102763521
 20
-180117.2681726009
 30
0.0
 11
194404.8387878881
 21
-180117.2681726009
 31
0.0
  0
LINE
  5
8C04
330
8C01
100
AcDbEntity
  8
标注
  6
Continuous
 48
5.0
370
    -2
100
AcDbLine
 10
194398.3089125273
 20
-180122.768152061
 30
0.0
 11
194404.8387878881
 21
-180122.768152061
 31
0.0
  0
LINE
  5
8C05
330
8C01
100
AcDbEntity
  8
标注
  6
Continuous
 62
     0
 48
5.0
370
    -2
100
AcDbLine
 10
194406.8387878881
 20
-180103.2681726009
 30
0.0
 11
194406.8387878881
 21
-180089.2681726009
 31
0.0
  0
LINE
  5
8C06
330
8C01
100
AcDbEntity
  8
标注
  6
Continuous
 62
     0
 48
5.0
370
    -2
100
AcDbLine
 10
194406.8387878881
 20
-180136.768152061
 30
0.0
 11
194406.8387878881
 21
-180150.768152061
 31
0.0
  0
LINE
  5
8C07
330
8C01
100
AcDbEntity
  8
标注
  6
Continuous
 62
     0
 48
5.0
370
    -2
100
AcDbLine
 10
194406.8387878881
 20
-180117.2681726009
 30
0.0
 11
194406.8387878881
 21
-180122.768152061
 31
0.0
  0
SOLID
  5
8C08
330
8C01
100
AcDbEntity
  8
标注
 62
     0
 48
5.0
100
AcDbTrace
 10
194404.5054545547
 20
-180103.2681726009
 30
0.0
 11
194409.1721212214
 21
-180103.2681726009
 31
0.0
 12
194406.8387878881
 22
-180117.2681726009
 32
0.0
 13
194406.8387878881
 23
-180117.2681726009
 33
0.0
  0
SOLID
  5
8C09
330
8C01
100
AcDbEntity
  8
标注
 62
     0
 48
5.0
100
AcDbTrace
 10
194404.5054545547
 20
-180136.768152061
 30
0.0
 11
194409.1721212214
 21
-180136.768152061
 31
0.0
 12
194406.8387878881
 22
-180122.768152061
 32
0.0
 13
194406.8387878881
 23
-180122.768152061
 33
0.0
  0
MTEXT
  5
8C0A
330
8C01
100
AcDbEntity
  8
标注
 62
     0
 48
5.0
100
AcDbMText
 10
194406.8387878881
 20
-180120.018162331
 30
0.0
 40
14.0
 41
0.0
 71
     5
 72
     1
  1
5,5
 11
0.0000000000000001
 21
1.0
 31
0.0
 73
     1
 44
1.0
1001
ACAD
1000
MTEXTBEGIN
1070
    73
1070
     1
1070
    44
1040
1.0
1070
    74
1070
     0
1000
MTEXTEND
  0
POINT
  5
8C0B
330
8C01
100
AcDbEntity
  8
DEFPOINTS
 62
     0
 48
5.0
100
AcDbPoint
 10
194409.8102763521
 20
-180117.2681726009
 30
0.0
  0
POINT
  5
8C0C
330
8C01
100
AcDbEntity
  8
DEFPOINTS
 62
     0
 48
5.0
100
AcDbPoint
 10
194408.3089125273
 20
-180122.768152061
 30
0.0
  0
POINT
  5
8C0D
330
8C01
100
AcDbEntity
  8
DEFPOINTS
 62
     0
 48
5.0
100
AcDbPoint
 10
194406.8387878881
 20
-180122.768152061
 30
0.0
  0
ENDBLK
  5
8C0E
330
8C01
100
AcDbEntity
  8
0
 48
5.0
100
AcDbBlockEnd
  0
BLOCK
  5
8C10
330
8C0F
100
AcDbEntity
  8
0
 48
5.0
100
AcDbBlockBegin
  2
*D18
 70
     1
 10
0.0
 20
0.0
 30
0.0
  3
*D18
  1

  0
ARC
  5
8C11
330
8C0F
100
AcDbEntity
  8
标注
  6
Continuous
 62
     0
 48
5.0
370
    -2
100
AcDbCircle
 10
194387.2507369794
 20
-180117.2681726009
 30
0.0
 40
2.049122295260386
100
AcDbArc
 50
274.0050893786509
 51
94.00508937865089
  0
ARC
  5
8C12
330
8C0F
100
AcDbEntity
  8
标注
  6
Continuous
 62
     0
 48
5.0
370
    -2
100
AcDbCircle
 10
194387.2507369794
 20
-180117.2681726009
 30
0.0
 40
2.049122295260386
100
AcDbArc
 50
180.0000000000187
 51
0.000000000018705
  0
ARC
  5
8C13
330
8C0F
100
AcDbEntity
  8
标注
  6
Continuous
 62
     0
 48
5.0
370
    -2
100
AcDbCircle
 10
194387.2507369794
 20
-180117.2681726009
 30
0.0
 40
2.049122295260386
100
AcDbArc
 50
274.0050893786509
 51
0.000000000018705
  0
SOLID
  5
8C14
330
8C0F
100
AcDbEntity
  8
标注
 62
     0
 48
5.0
100
AcDbTrace
 10
194388.7436619117
 20
-180105.1835088694
 30
0.0
 11
194384.0883919446
 21
-180105.5094525924
 31
0.0
 12
194387.3938580972
 22
-180119.3122906324
 32
0.0
 13
194387.3938580972
 23
-180119.3122906324
 33
0.0
  0
SOLID
  5
8C15
330
8C0F
100
AcDbEntity
  8
标注
 62
     0
 48
5.0
100
AcDbTrace
 10
194375.2998592747
 20
-180114.9348392676
 30
0.0
 11
194375.2998592747
 21
-180119.6015059343
 31
0.0
 12
194389.2998592747
 22
-180117.268172601
 32
0.0
 13
194389.2998592747
 23
-180117.268172601
 33
0.0
  0
MTEXT
  5
8C16
102
{ACAD_XDICTIONARY
360
9936
102
}
330
8C0F
100
AcDbEntity
  8
标注
 62
     0
 48
5.0
100
AcDbMText
 10
194388.6919338475
 20
-180118.7248310264
 30
0.0
 40
14.0
 41
0.0
 71
     5
 72
     1
  1
86\U+00B0
 11
0.7108694433748855
 21
0.7033239896917213
 31
0.0
 73
     1
 44
1.0
1001
ACAD
1000
MTEXTBEGIN
1070
    73
1070
     1
1070
    44
1040
1.0
1070
    74
1070
     0
1000
MTEXTEND
  0
POINT
  5
8C17
330
8C0F
100
AcDbEntity
  8
DEFPOINTS
 62
     0
 48
5.0
100
AcDbPoint
 10
194389.0487180292
 20
-180118.251110201
 30
0.0
  0
POINT
  5
8C18
330
8C0F
100
AcDbEntity
  8
DEFPOINTS
 62
     0
 48
5.0
100
AcDbPoint
 10
194387.2571469858
 20
-180117.3597230986
 30
0.0
  0
POINT
  5
8C19
330
8C0F
100
AcDbEntity
  8
DEFPOINTS
 62
     0
 48
5.0
100
AcDbPoint
 10
194413.3424596045
 20
-180117.2681726009
 30
0.0
  0
POINT
  5
8C1A
330
8C0F
100
AcDbEntity
  8
DEFPOINTS
 62
     0
 48
5.0
100
AcDbPoint
 10
194387.1589623543
 20
-180117.2681726009
 30
0.0
  0
POINT
  5
8C1B
330
8C0F
100
AcDbEntity
  8
DEFPOINTS
 62
     0
 48
5.0
100
AcDbPoint
 10
194387.6944753608
 20
-180123.6058370934
 30
0.0
  0
ENDBLK
  5
8C1C
330
8C0F
100
AcDbEntity
  8
0
 48
5.0
100
AcDbBlockEnd
  0
BLOCK
  5
8C1E
330
8C1D
100
AcDbEntity
  8
0
 48
5.0
100
AcDbBlockBegin
  2
*D19
 70
     1
 10
0.0
 20
0.0
 30
0.0
  3
*D19
  1

  0
LINE
  5
8C1F
330
8C1D
100
AcDbEntity
  8
标注
  6
Continuous
 48
5.0
370
    -2
100
AcDbLine
 10
194422.6601349794
 20
-180136.5344294905
 30
0.0
 11
194418.4417105241
 21
-180136.5344294905
 31
0.0
  0
LINE
  5
8C20
330
8C1D
100
AcDbEntity
  8
标注
  6
Continuous
 48
5.0
370
    -2
100
AcDbLine
 10
194422.6601349794
 20
-180153.0343964905
 30
0.0
 11
194418.4417105241
 21
-180153.0343964905
 31
0.0
  0
LINE
  5
8C21
330
8C1D
100
AcDbEntity
  8
标注
  6
Continuous
 62
     0
 48
5.0
370
    -2
100
AcDbLine
 10
194416.4417105241
 20
-180122.5344294905
 30
0.0
 11
194416.4417105241
 21
-180108.5344294905
 31
0.0
  0
LINE
  5
8C22
330
8C1D
100
AcDbEntity
  8
标注
  6
Continuous
 62
     0
 48
5.0
370
    -2
100
AcDbLine
 10
194416.4417105241
 20
-180167.0343964905
 30
0.0
 11
194416.4417105241
 21
-180181.0343964905
 31
0.0
  0
LINE
  5
8C23
330
8C1D
100
AcDbEntity
  8
标注
  6
Continuous
 62
     0
 48
5.0
370
    -2
100
AcDbLine
 10
194416.4417105241
 20
-180136.5344294905
 30
0.0
 11
194416.4417105241
 21
-180153.0343964905
 31
0.0
  0
SOLID
  5
8C24
330
8C1D
100
AcDbEntity
  8
标注
 62
     0
 48
5.0
100
AcDbTrace
 10
194414.1083771908
 20
-180122.5344294905
 30
0.0
 11
194418.7750438575
 21
-180122.5344294905
 31
0.0
 12
194416.4417105241
 22
-180136.5344294905
 32
0.0
 13
194416.4417105241
 23
-180136.5344294905
 33
0.0
  0
SOLID
  5
8C25
330
8C1D
100
AcDbEntity
  8
标注
 62
     0
 48
5.0
100
AcDbTrace
 10
194414.1083771908
 20
-180167.0343964905
 30
0.0
 11
194418.7750438575
 21
-180167.0343964905
 31
0.0
 12
194416.4417105241
 22
-180153.0343964905
 32
0.0
 13
194416.4417105241
 23
-180153.0343964905
 33
0.0
  0
MTEXT
  5
8C26
330
8C1D
100
AcDbEntity
  8
标注
 62
     0
 48
5.0
100
AcDbMText
 10
194416.4417105241
 20
-180144.7844129905
 30
0.0
 40
14.0
 41
0.0
 71
     5
 72
     1
  1
16,5
 11
0.0000000000000001
 21
1.0
 31
0.0
 73
     1
 44
1.0
1001
ACAD
1000
MTEXTBEGIN
1070
    73
1070
     1
1070
    44
1040
1.0
1070
    74
1070
     0
1000
MTEXTEND
  0
POINT
  5
8C27
330
8C1D
100
AcDbEntity
  8
DEFPOINTS
 62
     0
 48
5.0
100
AcDbPoint
 10
194412.6601349794
 20
-180136.5344294905
 30
0.0
  0
POINT
  5
8C28
330
8C1D
100
AcDbEntity
  8
DEFPOINTS
 62
     0
 48
5.0
100
AcDbPoint
 10
194412.6601349794
 20
-180153.0343964905
 30
0.0
  0
POINT
  5
8C29
330
8C1D
100
AcDbEntity
  8
DEFPOINTS
 62
     0
 48
5.0
100
AcDbPoint
 10
194416.4417105241
 20
-180153.0343964905
 30
0.0
  0
ENDBLK
  5
8C2A
330
8C1D
100
AcDbEntity
  8
0
 48
5.0
100
AcDbBlockEnd
  0
BLOCK
  5
8C2C
330
8C2B
100
AcDbEntity
  8
0
 48
5.0
100
AcDbBlockBegin
  2
*D20
 70
     1
 10
0.0
 20
0.0
 30
0.0
  3
*D20
  1

  0
LINE
  5
8C2D
330
8C2B
100
AcDbEntity
  8
标注
  6
Continuous
 48
5.0
370
    -2
100
AcDbLine
 10
194423.3176139794
 20
-180135.5344314905
 30
0.0
 11
194420.3063603746
 21
-180135.5344314905
 31
0.0
  0
LINE
  5
8C2E
330
8C2B
100
AcDbEntity
  8
标注
  6
Continuous
 48
5.0
370
    -2
100
AcDbLine
 10
194423.2506849794
 20
-180154.0343944905
 30
0.0
 11
194420.3063603746
 21
-180154.0343944905
 31
0.0
  0
LINE
  5
8C2F
330
8C2B
100
AcDbEntity
  8
标注
  6
Continuous
 62
     0
 48
5.0
370
    -2
100
AcDbLine
 10
194418.3063603746
 20
-180121.5344314905
 30
0.0
 11
194418.3063603746
 21
-180107.5344314905
 31
0.0
  0
LINE
  5
8C30
330
8C2B
100
AcDbEntity
  8
标注
  6
Continuous
 62
     0
 48
5.0
370
    -2
100
AcDbLine
 10
194418.3063603746
 20
-180168.0343944905
 30
0.0
 11
194418.3063603746
 21
-180182.0343944905
 31
0.0
  0
LINE
  5
8C31
330
8C2B
100
AcDbEntity
  8
标注
  6
Continuous
 62
     0
 48
5.0
370
    -2
100
AcDbLine
 10
194418.3063603746
 20
-180135.5344314905
 30
0.0
 11
194418.3063603746
 21
-180154.0343944905
 31
0.0
  0
SOLID
  5
8C32
330
8C2B
100
AcDbEntity
  8
标注
 62
     0
 48
5.0
100
AcDbTrace
 10
194415.9730270412
 20
-180121.5344314905
 30
0.0
 11
194420.6396937079
 21
-180121.5344314905
 31
0.0
 12
194418.3063603746
 22
-180135.5344314905
 32
0.0
 13
194418.3063603746
 23
-180135.5344314905
 33
0.0
  0
SOLID
  5
8C33
330
8C2B
100
AcDbEntity
  8
标注
 62
     0
 48
5.0
100
AcDbTrace
 10
194415.9730270412
 20
-180168.0343944905
 30
0.0
 11
194420.6396937079
 21
-180168.0343944905
 31
0.0
 12
194418.3063603746
 22
-180154.0343944905
 32
0.0
 13
194418.3063603746
 23
-180154.0343944905
 33
0.0
  0
MTEXT
  5
8C34
330
8C2B
100
AcDbEntity
  8
标注
 62
     0
 48
5.0
100
AcDbMText
 10
194418.3063603746
 20
-180144.7844129905
 30
0.0
 40
14.0
 41
0.0
 71
     5
 72
     1
  1
18,5
 11
0.0000000000000001
 21
1.0
 31
0.0
 73
     1
 44
1.0
1001
ACAD
1000
MTEXTBEGIN
1070
    73
1070
     1
1070
    44
1040
1.0
1070
    74
1070
     0
1000
MTEXTEND
  0
POINT
  5
8C35
330
8C2B
100
AcDbEntity
  8
DEFPOINTS
 62
     0
 48
5.0
100
AcDbPoint
 10
194413.3176139794
 20
-180135.5344314905
 30
0.0
  0
POINT
  5
8C36
330
8C2B
100
AcDbEntity
  8
DEFPOINTS
 62
     0
 48
5.0
100
AcDbPoint
 10
194413.2506849794
 20
-180154.0343944905
 30
0.0
  0
POINT
  5
8C37
330
8C2B
100
AcDbEntity
  8
DEFPOINTS
 62
     0
 48
5.0
100
AcDbPoint
 10
194418.3063603746
 20
-180154.0343944905
 30
0.0
  0
ENDBLK
  5
8C38
330
8C2B
100
AcDbEntity
  8
0
 48
5.0
100
AcDbBlockEnd
  0
BLOCK
  5
8C3A
330
8C39
100
AcDbEntity
  8
0
 48
5.0
100
AcDbBlockBegin
  2
*D21
 70
     1
 10
0.0
 20
0.0
 30
0.0
  3
*D21
  1

  0
LINE
  5
8C3B
330
8C39
100
AcDbEntity
  8
标注
  6
Continuous
 48
5.0
370
    -2
100
AcDbLine
 10
194386.2507389794
 20
-180163.1013254905
 30
0.0
 11
194386.2507389794
 21
-180160.0234840238
 31
0.0
  0
LINE
  5
8C3C
330
8C39
100
AcDbEntity
  8
标注
  6
Continuous
 48
5.0
370
    -2
100
AcDbLine
 10
194414.2506829794
 20
-180162.9318010863
 30
0.0
 11
194414.2506829794
 21
-180160.0234840238
 31
0.0
  0
LINE
  5
8C3D
330
8C39
100
AcDbEntity
  8
标注
  6
Continuous
 62
     0
 48
5.0
370
    -2
100
AcDbLine
 10
194372.2507389794
 20
-180158.0234840238
 30
0.0
 11
194358.2507389794
 21
-180158.0234840238
 31
0.0
  0
LINE
  5
8C3E
330
8C39
100
AcDbEntity
  8
标注
  6
Continuous
 62
     0
 48
5.0
370
    -2
100
AcDbLine
 10
194428.2506829794
 20
-180158.0234840238
 30
0.0
 11
194442.2506829794
 21
-180158.0234840238
 31
0.0
  0
LINE
  5
8C3F
330
8C39
100
AcDbEntity
  8
标注
  6
Continuous
 62
     0
 48
5.0
370
    -2
100
AcDbLine
 10
194386.2507389794
 20
-180158.0234840238
 30
0.0
 11
194387.2707109794
 21
-180158.0234840238
 31
0.0
  0
LINE
  5
8C40
330
8C39
100
AcDbEntity
  8
标注
  6
Continuous
 62
     0
 48
5.0
370
    -2
100
AcDbLine
 10
194414.2506829794
 20
-180158.0234840238
 30
0.0
 11
194413.2307109795
 21
-180158.0234840238
 31
0.0
  0
SOLID
  5
8C41
330
8C39
100
AcDbEntity
  8
标注
 62
     0
 48
5.0
100
AcDbTrace
 10
194372.2507389794
 20
-180155.6901506905
 30
0.0
 11
194372.2507389794
 21
-180160.3568173571
 31
0.0
 12
194386.2507389794
 22
-180158.0234840238
 32
0.0
 13
194386.2507389794
 23
-180158.0234840238
 33
0.0
  0
SOLID
  5
8C42
330
8C39
100
AcDbEntity
  8
标注
 62
     0
 48
5.0
100
AcDbTrace
 10
194428.2506829794
 20
-180155.6901506905
 30
0.0
 11
194428.2506829794
 21
-180160.3568173571
 31
0.0
 12
194414.2506829794
 22
-180158.0234840238
 32
0.0
 13
194414.2506829794
 23
-180158.0234840238
 33
0.0
  0
MTEXT
  5
8C43
330
8C39
100
AcDbEntity
  8
标注
 62
     0
 48
5.0
100
AcDbMText
 10
194400.2507109794
 20
-180158.0234840238
 30
0.0
 40
14.0
 41
0.0
 71
     5
 72
     1
  1
28
 73
     1
 44
1.0
1001
ACAD
1000
MTEXTBEGIN
1070
    73
1070
     1
1070
    44
1040
1.0
1070
    74
1070
     0
1000
MTEXTEND
  0
POINT
  5
8C44
330
8C39
100
AcDbEntity
  8
DEFPOINTS
 62
     0
 48
5.0
100
AcDbPoint
 10
194386.2507389794
 20
-180153.1013254905
 30
0.0
  0
POINT
  5
8C45
330
8C39
100
AcDbEntity
  8
DEFPOINTS
 62
     0
 48
5.0
100
AcDbPoint
 10
194414.2506829794
 20
-180152.9318010863
 30
0.0
  0
POINT
  5
8C46
330
8C39
100
AcDbEntity
  8
DEFPOINTS
 62
     0
 48
5.0
100
AcDbPoint
 10
194414.2506829794
 20
-180158.0234840238
 30
0.0
  0
ENDBLK
  5
8C47
330
8C39
100
AcDbEntity
  8
0
 48
5.0
100
AcDbBlockEnd
  0
BLOCK
  5
8C49
330
8C48
100
AcDbEntity
  8
0
 48
5.0
100
AcDbBlockBegin
  2
*D22
 70
     1
 10
0.0
 20
0.0
 30
0.0
  3
*D22
  1

  0
LINE
  5
8C4A
330
8C48
100
AcDbEntity
  8
标注
  6
Continuous
 48
5.0
370
    -2
100
AcDbLine
 10
194387.2507369794
 20
-180162.3480723302
 30
0.0
 11
194387.2507369794
 21
-180158.1571652545
 31
0.0
  0
LINE
  5
8C4B
330
8C48
100
AcDbEntity
  8
标注
  6
Continuous
 48
5.0
370
    -2
100
AcDbLine
 10
194413.2506849794
 20
-180162.4438464905
 30
0.0
 11
194413.2506849794
 21
-180158.1571652545
 31
0.0
  0
LINE
  5
8C4C
330
8C48
100
AcDbEntity
  8
标注
  6
Continuous
 62
     0
 48
5.0
370
    -2
100
AcDbLine
 10
194373.2507369794
 20
-180156.1571652545
 30
0.0
 11
194359.2507369794
 21
-180156.1571652545
 31
0.0
  0
LINE
  5
8C4D
330
8C48
100
AcDbEntity
  8
标注
  6
Continuous
 62
     0
 48
5.0
370
    -2
100
AcDbLine
 10
194427.2506849794
 20
-180156.1571652545
 30
0.0
 11
194441.2506849794
 21
-180156.1571652545
 31
0.0
  0
LINE
  5
8C4E
330
8C48
100
AcDbEntity
  8
标注
  6
Continuous
 62
     0
 48
5.0
370
    -2
100
AcDbLine
 10
194387.2507369794
 20
-180156.1571652545
 30
0.0
 11
194413.2506849794
 21
-180156.1571652545
 31
0.0
  0
SOLID
  5
8C4F
330
8C48
100
AcDbEntity
  8
标注
 62
     0
 48
5.0
100
AcDbTrace
 10
194373.2507369794
 20
-180153.8238319212
 30
0.0
 11
194373.2507369794
 21
-180158.4904985879
 31
0.0
 12
194387.2507369794
 22
-180156.1571652545
 32
0.0
 13
194387.2507369794
 23
-180156.1571652545
 33
0.0
  0
SOLID
  5
8C50
330
8C48
100
AcDbEntity
  8
标注
 62
     0
 48
5.0
100
AcDbTrace
 10
194427.2506849794
 20
-180153.8238319212
 30
0.0
 11
194427.2506849794
 21
-180158.4904985879
 31
0.0
 12
194413.2506849794
 22
-180156.1571652545
 32
0.0
 13
194413.2506849794
 23
-180156.1571652545
 33
0.0
  0
MTEXT
  5
8C51
330
8C48
100
AcDbEntity
  8
标注
 62
     0
 48
5.0
100
AcDbMText
 10
194454.3006849794
 20
-180156.1571652545
 30
0.0
 40
14.0
 41
0.0
 71
     5
 72
     1
  1
26
 73
     1
 44
1.0
1001
ACAD
1000
MTEXTBEGIN
1070
    73
1070
     1
1070
    44
1040
1.0
1070
    74
1070
     0
1000
MTEXTEND
  0
POINT
  5
8C52
330
8C48
100
AcDbEntity
  8
DEFPOINTS
 62
     0
 48
5.0
100
AcDbPoint
 10
194387.2507369794
 20
-180152.3480723303
 30
0.0
  0
POINT
  5
8C53
330
8C48
100
AcDbEntity
  8
DEFPOINTS
 62
     0
 48
5.0
100
AcDbPoint
 10
194413.2506849794
 20
-180152.4438464905
 30
0.0
  0
POINT
  5
8C54
330
8C48
100
AcDbEntity
  8
DEFPOINTS
 62
     0
 48
5.0
100
AcDbPoint
 10
194413.2506849794
 20
-180156.1571652545
 30
0.0
  0
ENDBLK
  5
8C55
330
8C48
100
AcDbEntity
  8
0
 48
5.0
100
AcDbBlockEnd
  0
BLOCK
  5
8C57
330
8C56
100
AcDbEntity
  8
0
 48
5.0
100
AcDbBlockBegin
  2
*D23
 70
     1
 10
0.0
 20
0.0
 30
0.0
  3
*D23
  1

  0
LINE
  5
8C58
330
8C56
100
AcDbEntity
  8
标注
  6
Continuous
 48
5.0
370
    -2
100
AcDbLine
 10
194413.2506849794
 20
-180146.1571652545
 30
0.0
 11
194413.2506849794
 21
-180154.1571652545
 31
0.0
  0
LINE
  5
8C59
330
8C56
100
AcDbEntity
  8
标注
  6
Continuous
 48
5.0
370
    -2
100
AcDbLine
 10
194414.2506829794
 20
-180146.1571652545
 30
0.0
 11
194414.2506829794
 21
-180154.1571652545
 31
0.0
  0
LINE
  5
8C5A
330
8C56
100
AcDbEntity
  8
标注
  6
Continuous
 62
     0
 48
5.0
370
    -2
100
AcDbLine
 10
194399.2506849794
 20
-180156.1571652545
 30
0.0
 11
194385.2506849794
 21
-180156.1571652545
 31
0.0
  0
LINE
  5
8C5B
330
8C56
100
AcDbEntity
  8
标注
  6
Continuous
 62
     0
 48
5.0
370
    -2
100
AcDbLine
 10
194428.2506829794
 20
-180156.1571652545
 30
0.0
 11
194442.2506829794
 21
-180156.1571652545
 31
0.0
  0
LINE
  5
8C5C
330
8C56
100
AcDbEntity
  8
标注
  6
Continuous
 62
     0
 48
5.0
370
    -2
100
AcDbLine
 10
194413.2506849794
 20
-180156.1571652545
 30
0.0
 11
194414.2506829794
 21
-180156.1571652545
 31
0.0
  0
SOLID
  5
8C5D
330
8C56
100
AcDbEntity
  8
标注
 62
     0
 48
5.0
100
AcDbTrace
 10
194399.2506849794
 20
-180153.8238319212
 30
0.0
 11
194399.2506849794
 21
-180158.4904985879
 31
0.0
 12
194413.2506849794
 22
-180156.1571652545
 32
0.0
 13
194413.2506849794
 23
-180156.1571652545
 33
0.0
  0
SOLID
  5
8C5E
330
8C56
100
AcDbEntity
  8
标注
 62
     0
 48
5.0
100
AcDbTrace
 10
194428.2506829794
 20
-180153.8238319212
 30
0.0
 11
194428.2506829794
 21
-180158.4904985879
 31
0.0
 12
194414.2506829794
 22
-180156.1571652545
 32
0.0
 13
194414.2506829794
 23
-180156.1571652545
 33
0.0
  0
MTEXT
  5
8C5F
330
8C56
100
AcDbEntity
  8
标注
 62
     0
 48
5.0
100
AcDbMText
 10
194449.8056829794
 20
-180156.1571652545
 30
0.0
 40
14.0
 41
0.0
 71
     5
 72
     1
  1
1
 73
     1
 44
1.0
1001
ACAD
1000
MTEXTBEGIN
1070
    73
1070
     1
1070
    44
1040
1.0
1070
    74
1070
     0
1000
MTEXTEND
  0
POINT
  5
8C60
330
8C56
100
AcDbEntity
  8
DEFPOINTS
 62
     0
 48
5.0
100
AcDbPoint
 10
194413.2506849794
 20
-180156.1571652545
 30
0.0
  0
POINT
  5
8C61
330
8C56
100
AcDbEntity
  8
DEFPOINTS
 62
     0
 48
5.0
100
AcDbPoint
 10
194414.2506829794
 20
-180156.1571652545
 30
0.0
  0
POINT
  5
8C62
330
8C56
100
AcDbEntity
  8
DEFPOINTS
 62
     0
 48
5.0
100
AcDbPoint
 10
194414.2506829794
 20
-180156.1571652545
 30
0.0
  0
ENDBLK
  5
8C63
330
8C56
100
AcDbEntity
  8
0
 48
5.0
100
AcDbBlockEnd
  0
BLOCK
  5
8C65
330
8C64
100
AcDbEntity
  8
0
 48
5.0
100
AcDbBlockBegin
  2
*D24
 70
     1
 10
0.0
 20
0.0
 30
0.0
  3
*D24
  1

  0
LINE
  5
8C66
330
8C64
100
AcDbEntity
  8
标注
  6
Continuous
 48
5.0
370
    -2
100
AcDbLine
 10
194387.5893164798
 20
-180132.1039122335
 30
0.0
 11
194387.5893164798
 21
-180128.3305759402
 31
0.0
  0
LINE
  5
8C67
330
8C64
100
AcDbEntity
  8
标注
  6
Continuous
 48
5.0
370
    -2
100
AcDbLine
 10
194412.9121054791
 20
-180132.1039122335
 30
0.0
 11
194412.9121054791
 21
-180128.3305759402
 31
0.0
  0
LINE
  5
8C68
330
8C64
100
AcDbEntity
  8
标注
  6
Continuous
 62
     0
 48
5.0
370
    -2
100
AcDbLine
 10
194373.5893164798
 20
-180126.3305759403
 30
0.0
 11
194359.5893164798
 21
-180126.3305759403
 31
0.0
  0
LINE
  5
8C69
330
8C64
100
AcDbEntity
  8
标注
  6
Continuous
 62
     0
 48
5.0
370
    -2
100
AcDbLine
 10
194426.9121054791
 20
-180126.3305759403
 30
0.0
 11
194440.9121054791
 21
-180126.3305759403
 31
0.0
  0
LINE
  5
8C6A
330
8C64
100
AcDbEntity
  8
标注
  6
Continuous
 62
     0
 48
5.0
370
    -2
100
AcDbLine
 10
194387.5893164798
 20
-180126.3305759403
 30
0.0
 11
194412.9121054791
 21
-180126.3305759403
 31
0.0
  0
SOLID
  5
8C6B
330
8C64
100
AcDbEntity
  8
标注
 62
     0
 48
5.0
100
AcDbTrace
 10
194373.5893164798
 20
-180123.9972426069
 30
0.0
 11
194373.5893164798
 21
-180128.6639092736
 31
0.0
 12
194387.5893164798
 22
-180126.3305759403
 32
0.0
 13
194387.5893164798
 23
-180126.3305759403
 33
0.0
  0
SOLID
  5
8C6C
330
8C64
100
AcDbEntity
  8
标注
 62
     0
 48
5.0
100
AcDbTrace
 10
194426.9121054791
 20
-180123.9972426069
 30
0.0
 11
194426.9121054791
 21
-180128.6639092736
 31
0.0
 12
194412.9121054791
 22
-180126.3305759403
 32
0.0
 13
194412.9121054791
 23
-180126.3305759403
 33
0.0
  0
MTEXT
  5
8C6D
330
8C64
100
AcDbEntity
  8
标注
 62
     0
 48
5.0
100
AcDbMText
 10
194468.9071054791
 20
-180126.3305759403
 30
0.0
 40
14.0
 41
0.0
 71
     5
 72
     1
  1
(25,3)
 73
     1
 44
1.0
1001
ACAD
1000
MTEXTBEGIN
1070
    73
1070
     1
1070
    44
1040
1.0
1070
    74
1070
     0
1000
MTEXTEND
  0
POINT
  5
8C6E
330
8C64
100
AcDbEntity
  8
DEFPOINTS
 62
     0
 48
5.0
100
AcDbPoint
 10
194387.5893164798
 20
-180122.1039122335
 30
0.0
  0
POINT
  5
8C6F
330
8C64
100
AcDbEntity
  8
DEFPOINTS
 62
     0
 48
5.0
100
AcDbPoint
 10
194412.9121054791
 20
-180122.1039122335
 30
0.0
  0
POINT
  5
8C70
330
8C64
100
AcDbEntity
  8
DEFPOINTS
 62
     0
 48
5.0
100
AcDbPoint
 10
194412.9121054791
 20
-180126.3305759403
 30
0.0
  0
ENDBLK
  5
8C71
330
8C64
100
AcDbEntity
  8
0
 48
5.0
100
AcDbBlockEnd
  0
BLOCK
  5
8C73
330
8C72
100
AcDbEntity
  8
0
 48
5.0
100
AcDbBlockBegin
  2
*D25
 70
     1
 10
0.0
 20
0.0
 30
0.0
  3
*D25
  1

  0
LINE
  5
8C74
330
8C72
100
AcDbEntity
  8
标注
  6
Continuous
 48
5.0
370
    -2
100
AcDbLine
 10
194388.167599634
 20
-180132.6531160047
 30
0.0
 11
194388.167599634
 21
-180126.7890399212
 31
0.0
  0
LINE
  5
8C75
330
8C72
100
AcDbEntity
  8
标注
  6
Continuous
 48
5.0
370
    -2
100
AcDbLine
 10
194412.5139969499
 20
-180132.6498128938
 30
0.0
 11
194412.5139969499
 21
-180126.7890399212
 31
0.0
  0
LINE
  5
8C76
330
8C72
100
AcDbEntity
  8
标注
  6
Continuous
 62
     0
 48
5.0
370
    -2
100
AcDbLine
 10
194374.167599634
 20
-180124.7890399212
 30
0.0
 11
194360.167599634
 21
-180124.7890399212
 31
0.0
  0
LINE
  5
8C77
330
8C72
100
AcDbEntity
  8
标注
  6
Continuous
 62
     0
 48
5.0
370
    -2
100
AcDbLine
 10
194426.5139969498
 20
-180124.7890399212
 30
0.0
 11
194440.5139969498
 21
-180124.7890399212
 31
0.0
  0
LINE
  5
8C78
330
8C72
100
AcDbEntity
  8
标注
  6
Continuous
 62
     0
 48
5.0
370
    -2
100
AcDbLine
 10
194388.167599634
 20
-180124.7890399212
 30
0.0
 11
194412.5139969499
 21
-180124.7890399212
 31
0.0
  0
SOLID
  5
8C79
330
8C72
100
AcDbEntity
  8
标注
 62
     0
 48
5.0
100
AcDbTrace
 10
194374.167599634
 20
-180122.4557065878
 30
0.0
 11
194374.167599634
 21
-180127.1223732545
 31
0.0
 12
194388.167599634
 22
-180124.7890399212
 32
0.0
 13
194388.167599634
 23
-180124.7890399212
 33
0.0
  0
SOLID
  5
8C7A
330
8C72
100
AcDbEntity
  8
标注
 62
     0
 48
5.0
100
AcDbTrace
 10
194426.5139969498
 20
-180122.4557065878
 30
0.0
 11
194426.5139969498
 21
-180127.1223732545
 31
0.0
 12
194412.5139969499
 22
-180124.7890399212
 32
0.0
 13
194412.5139969499
 23
-180124.7890399212
 33
0.0
  0
MTEXT
  5
8C7B
330
8C72
100
AcDbEntity
  8
标注
 62
     0
 48
5.0
100
AcDbMText
 10
194400.340798292
 20
-180124.7890399212
 30
0.0
 40
14.0
 41
0.0
 71
     5
 72
     1
  1
(24,3)
 73
     1
 44
1.0
1001
ACAD
1000
MTEXTBEGIN
1070
    73
1070
     1
1070
    44
1040
1.0
1070
    74
1070
     0
1000
MTEXTEND
  0
POINT
  5
8C7C
330
8C72
100
AcDbEntity
  8
DEFPOINTS
 62
     0
 48
5.0
100
AcDbPoint
 10
194388.167599634
 20
-180122.6531160047
 30
0.0
  0
POINT
  5
8C7D
330
8C72
100
AcDbEntity
  8
DEFPOINTS
 62
     0
 48
5.0
100
AcDbPoint
 10
194412.5139969499
 20
-180122.6498128938
 30
0.0
  0
POINT
  5
8C7E
330
8C72
100
AcDbEntity
  8
DEFPOINTS
 62
     0
 48
5.0
100
AcDbPoint
 10
194412.5139969499
 20
-180124.7890399212
 30
0.0
  0
ENDBLK
  5
8C7F
330
8C72
100
AcDbEntity
  8
0
 48
5.0
100
AcDbBlockEnd
  0
BLOCK
  5
8C81
330
8C80
100
AcDbEntity
  8
0
 48
5.0
100
AcDbBlockBegin
  2
*D26
 70
     1
 10
0.0
 20
0.0
 30
0.0
  3
*D26
  1

  0
LINE
  5
8C82
330
8C80
100
AcDbEntity
  8
标注
  6
Continuous
 48
5.0
370
    -2
100
AcDbLine
 10
194387.1719969795
 20
-180194.2900443187
 30
0.0
 11
194387.1719969795
 21
-180189.4610283302
 31
0.0
  0
LINE
  5
8C83
330
8C80
100
AcDbEntity
  8
标注
  6
Continuous
 48
5.0
370
    -2
100
AcDbLine
 10
194413.3294249795
 20
-180194.2900443187
 30
0.0
 11
194413.3294249795
 21
-180189.4610283302
 31
0.0
  0
LINE
  5
8C84
330
8C80
100
AcDbEntity
  8
标注
  6
Continuous
 62
     0
 48
5.0
370
    -2
100
AcDbLine
 10
194373.1719969795
 20
-180187.4610283302
 30
0.0
 11
194359.1719969795
 21
-180187.4610283302
 31
0.0
  0
LINE
  5
8C85
330
8C80
100
AcDbEntity
  8
标注
  6
Continuous
 62
     0
 48
5.0
370
    -2
100
AcDbLine
 10
194427.3294249795
 20
-180187.4610283302
 30
0.0
 11
194441.3294249795
 21
-180187.4610283302
 31
0.0
  0
LINE
  5
8C86
330
8C80
100
AcDbEntity
  8
标注
  6
Continuous
 62
     0
 48
5.0
370
    -2
100
AcDbLine
 10
194387.1719969795
 20
-180187.4610283302
 30
0.0
 11
194413.3294249795
 21
-180187.4610283302
 31
0.0
  0
SOLID
  5
8C87
330
8C80
100
AcDbEntity
  8
标注
 62
     0
 48
5.0
100
AcDbTrace
 10
194373.1719969795
 20
-180185.1276949969
 30
0.0
 11
194373.1719969795
 21
-180189.7943616635
 31
0.0
 12
194387.1719969795
 22
-180187.4610283302
 32
0.0
 13
194387.1719969795
 23
-180187.4610283302
 33
0.0
  0
SOLID
  5
8C88
330
8C80
100
AcDbEntity
  8
标注
 62
     0
 48
5.0
100
AcDbTrace
 10
194427.3294249795
 20
-180185.1276949969
 30
0.0
 11
194427.3294249795
 21
-180189.7943616635
 31
0.0
 12
194413.3294249795
 22
-180187.4610283302
 32
0.0
 13
194413.3294249795
 23
-180187.4610283302
 33
0.0
  0
MTEXT
  5
8C89
330
8C80
100
AcDbEntity
  8
标注
 62
     0
 48
5.0
100
AcDbMText
 10
194463.2344249794
 20
-180187.4610283302
 30
0.0
 40
14.0
 41
0.0
 71
     5
 72
     1
  1
26,2
 73
     1
 44
1.0
1001
ACAD
1000
MTEXTBEGIN
1070
    73
1070
     1
1070
    44
1040
1.0
1070
    74
1070
     0
1000
MTEXTEND
  0
POINT
  5
8C8A
330
8C80
100
AcDbEntity
  8
DEFPOINTS
 62
     0
 48
5.0
100
AcDbPoint
 10
194387.1719969795
 20
-180184.2900443188
 30
0.0
  0
POINT
  5
8C8B
330
8C80
100
AcDbEntity
  8
DEFPOINTS
 62
     0
 48
5.0
100
AcDbPoint
 10
194413.3294249795
 20
-180184.2900443188
 30
0.0
  0
POINT
  5
8C8C
330
8C80
100
AcDbEntity
  8
DEFPOINTS
 62
     0
 48
5.0
100
AcDbPoint
 10
194413.3294249795
 20
-180187.4610283302
 30
0.0
  0
ENDBLK
  5
8C8D
330
8C80
100
AcDbEntity
  8
0
 48
5.0
100
AcDbBlockEnd
  0
BLOCK
  5
8C8F
330
8C8E
100
AcDbEntity
  8
0
 48
5.0
100
AcDbBlockBegin
  2
*D27
 70
     1
 10
0.0
 20
0.0
 30
0.0
  3
*D27
  1

  0
LINE
  5
8C90
330
8C8E
100
AcDbEntity
  8
标注
  6
Continuous
 48
5.0
370
    -2
100
AcDbLine
 10
194422.0984765278
 20
-180185.2579267843
 30
0.0
 11
194417.507532675
 21
-180185.2579267843
 31
0.0
  0
LINE
  5
8C91
330
8C8E
100
AcDbEntity
  8
标注
  6
Continuous
 48
5.0
370
    -2
100
AcDbLine
 10
194422.0984765278
 20
-180168.6004797843
 30
0.0
 11
194417.507532675
 21
-180168.6004797843
 31
0.0
  0
LINE
  5
8C92
330
8C8E
100
AcDbEntity
  8
标注
  6
Continuous
 62
     0
 48
5.0
370
    -2
100
AcDbLine
 10
194415.5075326751
 20
-180199.2579267843
 30
0.0
 11
194415.5075326751
 21
-180213.2579267843
 31
0.0
  0
LINE
  5
8C93
330
8C8E
100
AcDbEntity
  8
标注
  6
Continuous
 62
     0
 48
5.0
370
    -2
100
AcDbLine
 10
194415.5075326751
 20
-180154.6004797843
 30
0.0
 11
194415.5075326751
 21
-180140.6004797843
 31
0.0
  0
LINE
  5
8C94
330
8C8E
100
AcDbEntity
  8
标注
  6
Continuous
 62
     0
 48
5.0
370
    -2
100
AcDbLine
 10
194415.5075326751
 20
-180185.2579267843
 30
0.0
 11
194415.5075326751
 21
-180168.6004797843
 31
0.0
  0
SOLID
  5
8C95
330
8C8E
100
AcDbEntity
  8
标注
 62
     0
 48
5.0
100
AcDbTrace
 10
194413.1741993417
 20
-180199.2579267843
 30
0.0
 11
194417.8408660084
 21
-180199.2579267843
 31
0.0
 12
194415.5075326751
 22
-180185.2579267843
 32
0.0
 13
194415.5075326751
 23
-180185.2579267843
 33
0.0
  0
SOLID
  5
8C96
330
8C8E
100
AcDbEntity
  8
标注
 62
     0
 48
5.0
100
AcDbTrace
 10
194413.1741993417
 20
-180154.6004797843
 30
0.0
 11
194417.8408660084
 21
-180154.6004797843
 31
0.0
 12
194415.5075326751
 22
-180168.6004797843
 32
0.0
 13
194415.5075326751
 23
-180168.6004797843
 33
0.0
  0
MTEXT
  5
8C97
330
8C8E
100
AcDbEntity
  8
标注
 62
     0
 48
5.0
100
AcDbMText
 10
194415.5075326751
 20
-180119.2204797843
 30
0.0
 40
14.0
 41
0.0
 71
     5
 72
     1
  1
16,7
 11
0.0000000000000001
 21
1.0
 31
0.0
 73
     1
 44
1.0
1001
ACAD
1000
MTEXTBEGIN
1070
    73
1070
     1
1070
    44
1040
1.0
1070
    74
1070
     0
1000
MTEXTEND
  0
POINT
  5
8C98
330
8C8E
100
AcDbEntity
  8
DEFPOINTS
 62
     0
 48
5.0
100
AcDbPoint
 10
194412.0984765277
 20
-180185.2579267843
 30
0.0
  0
POINT
  5
8C99
330
8C8E
100
AcDbEntity
  8
DEFPOINTS
 62
     0
 48
5.0
100
AcDbPoint
 10
194412.0984765277
 20
-180168.6004797843
 30
0.0
  0
POINT
  5
8C9A
330
8C8E
100
AcDbEntity
  8
DEFPOINTS
 62
     0
 48
5.0
100
AcDbPoint
 10
194415.5075326751
 20
-180168.6004797843
 30
0.0
  0
ENDBLK
  5
8C9B
330
8C8E
100
AcDbEntity
  8
0
 48
5.0
100
AcDbBlockEnd
  0
BLOCK
  5
8D97
330
8D96
100
AcDbEntity
  8
0
100
AcDbBlockBegin
  2
*D28
 70
     1
 10
0.0
 20
0.0
 30
0.0
  3
*D28
  1

  0
LINE
  5
8E9E
330
8D96
100
AcDbEntity
  8
标注线
 48
5.0
370
    -2
100
AcDbLine
 10
1466.613807820454
 20
131.3586813724769
 30
0.0
 11
1466.613807820454
 21
130.7986813724769
 31
0.0
  0
LINE
  5
8E9F
330
8D96
100
AcDbEntity
  8
标注线
 48
5.0
370
    -2
100
AcDbLine
 10
1467.613805820468
 20
131.3586813724769
 30
0.0
 11
1467.613805820468
 21
130.7986813724769
 31
0.0
  0
LINE
  5
8EA0
330
8D96
100
AcDbEntity
  8
标注线
 48
5.0
370
    -2
100
AcDbLine
 10
1465.963807820454
 20
130.4786813724769
 30
0.0
 11
1465.313807820454
 21
130.4786813724769
 31
0.0
  0
LINE
  5
8EA1
330
8D96
100
AcDbEntity
  8
标注线
 48
5.0
370
    -2
100
AcDbLine
 10
1468.263805820468
 20
130.4786813724769
 30
0.0
 11
1468.913805820468
 21
130.4786813724769
 31
0.0
  0
MTEXT
  5
8EA2
330
8D96
100
AcDbEntity
  8
标注线
 48
5.0
100
AcDbMText
 10
1467.113806820461
 20
132.2276718226815
 30
0.0
 40
0.65
 41
0.0
 71
     5
 72
     1
  1
\A1;1"
 73
     1
 44
1.0
1001
ACAD
1000
MTEXTBEGIN
1070
    73
1070
     1
1070
    44
1040
1.0
1070
    74
1070
     0
1000
MTEXTEND
  0
LINE
  5
8EA3
330
8D96
100
AcDbEntity
  8
标注线
 48
5.0
370
    -2
100
AcDbLine
 10
1466.613807820454
 20
130.4786813724769
 30
0.0
 11
1467.613805820468
 21
130.4786813724769
 31
0.0
  0
SOLID
  5
8EA4
330
8D96
100
AcDbEntity
  8
标注线
 48
5.0
100
AcDbTrace
 10
1465.963807820454
 20
130.5870147058102
 30
0.0
 11
1465.963807820454
 21
130.3703480391436
 31
0.0
 12
1466.613807820454
 22
130.4786813724769
 32
0.0
 13
1466.613807820454
 23
130.4786813724769
 33
0.0
  0
SOLID
  5
8EA5
330
8D96
100
AcDbEntity
  8
标注线
 48
5.0
100
AcDbTrace
 10
1468.263805820468
 20
130.5870147058102
 30
0.0
 11
1468.263805820468
 21
130.3703480391436
 31
0.0
 12
1467.613805820468
 22
130.4786813724769
 32
0.0
 13
1467.613805820468
 23
130.4786813724769
 33
0.0
  0
POINT
  5
8EA6
330
8D96
100
AcDbEntity
  8
DEFPOINTS
 62
     0
 48
5.0
100
AcDbPoint
 10
1466.613807820454
 20
130.4786813724769
 30
0.0
  0
POINT
  5
8EA7
330
8D96
100
AcDbEntity
  8
DEFPOINTS
 62
     0
 48
5.0
100
AcDbPoint
 10
1467.613805820468
 20
130.4786813724769
 30
0.0
  0
POINT
  5
8EA8
330
8D96
100
AcDbEntity
  8
DEFPOINTS
 62
     0
 48
5.0
100
AcDbPoint
 10
1467.613805820468
 20
130.4786813724769
 30
0.0
  0
ENDBLK
  5
8D98
330
8D96
100
AcDbEntity
  8
0
100
AcDbBlockEnd
  0
BLOCK
  5
8DA5
330
8DA4
100
AcDbEntity
  8
0
100
AcDbBlockBegin
  2
*D29
 70
     1
 10
0.0
 20
0.0
 30
0.0
  3
*D29
  1

  0
LINE
  5
8F03
330
8DA4
100
AcDbEntity
  8
标注线
 48
5.0
370
    -2
100
AcDbLine
 10
1440.952439320799
 20
163.6519343935099
 30
0.0
 11
1440.952439320799
 21
159.9852706867439
 31
0.0
  0
LINE
  5
8F04
330
8DA4
100
AcDbEntity
  8
标注线
 48
5.0
370
    -2
100
AcDbLine
 10
1466.275228320127
 20
163.6519343934808
 30
0.0
 11
1466.275228320127
 21
159.9852706867439
 31
0.0
  0
LINE
  5
8F05
330
8DA4
100
AcDbEntity
  8
标注线
 48
5.0
370
    -2
100
AcDbLine
 10
1441.602439320799
 20
160.3052706867439
 30
0.0
 11
1451.631859059208
 21
160.3052706867439
 31
0.0
  0
LINE
  5
8F06
330
8DA4
100
AcDbEntity
  8
标注线
 48
5.0
370
    -2
100
AcDbLine
 10
1465.625228320127
 20
160.3052706867439
 30
0.0
 11
1455.595808581718
 21
160.3052706867439
 31
0.0
  0
SOLID
  5
8F07
330
8DA4
100
AcDbEntity
  8
标注线
 48
5.0
100
AcDbTrace
 10
1441.602439320799
 20
160.4136040200772
 30
0.0
 11
1441.602439320799
 21
160.1969373534106
 31
0.0
 12
1440.952439320799
 22
160.3052706867439
 32
0.0
 13
1440.952439320799
 23
160.3052706867439
 33
0.0
  0
SOLID
  5
8F08
330
8DA4
100
AcDbEntity
  8
标注线
 48
5.0
100
AcDbTrace
 10
1465.625228320127
 20
160.4136040200772
 30
0.0
 11
1465.625228320127
 21
160.1969373534106
 31
0.0
 12
1466.275228320127
 22
160.3052706867439
 32
0.0
 13
1466.275228320127
 23
160.3052706867439
 33
0.0
  0
MTEXT
  5
8F09
330
8DA4
100
AcDbEntity
  8
标注线
 48
5.0
100
AcDbMText
 10
1453.613833820463
 20
160.3052706867439
 30
0.0
 40
0.65
 41
0.0
 71
     5
 72
     1
  1
\A1;(25 3/8")
 73
     1
 44
1.0
1001
ACAD
1000
MTEXTBEGIN
1070
    73
1070
     1
1070
    44
1040
1.0
1070
    74
1070
     0
1000
MTEXTEND
  0
POINT
  5
8F0A
330
8DA4
100
AcDbEntity
  8
DEFPOINTS
 62
     0
 48
5.0
100
AcDbPoint
 10
1440.952439320799
 20
164.5319343935099
 30
0.0
  0
POINT
  5
8F0B
330
8DA4
100
AcDbEntity
  8
DEFPOINTS
 62
     0
 48
5.0
100
AcDbPoint
 10
1466.275228320127
 20
164.5319343934808
 30
0.0
  0
POINT
  5
8F0C
330
8DA4
100
AcDbEntity
  8
DEFPOINTS
 62
     0
 48
5.0
100
AcDbPoint
 10
1466.275228320127
 20
160.3052706867439
 30
0.0
  0
ENDBLK
  5
8DA6
330
8DA4
100
AcDbEntity
  8
0
100
AcDbBlockEnd
  0
BLOCK
  5
8DB3
330
8DB2
100
AcDbEntity
  8
0
100
AcDbBlockBegin
  2
*D30
 70
     1
 10
0.0
 20
0.0
 30
0.0
  3
*D30
  1

  0
LINE
  5
8F5E
330
8DB2
100
AcDbEntity
  8
标注线
 48
5.0
370
    -2
100
AcDbLine
 10
1468.493805820468
 20
165.6191574371432
 30
0.0
 11
1469.779912075976
 21
165.6191574371432
 31
0.0
  0
LINE
  5
8F5F
330
8DB2
100
AcDbEntity
  8
标注线
 48
5.0
370
    -2
100
AcDbLine
 10
1468.004293714753
 20
160.1191779770261
 30
0.0
 11
1469.779912075976
 21
160.1191779770261
 31
0.0
  0
LINE
  5
8F60
330
8DB2
100
AcDbEntity
  8
标注线
 48
5.0
370
    -2
100
AcDbLine
 10
1469.459912075976
 20
164.9691574371432
 30
0.0
 11
1469.459912075976
 21
164.8299875633699
 31
0.0
  0
LINE
  5
8F61
330
8DB2
100
AcDbEntity
  8
标注线
 48
5.0
370
    -2
100
AcDbLine
 10
1469.459912075976
 20
160.7691779770261
 30
0.0
 11
1469.459912075976
 21
161.968289064052
 31
0.0
  0
MTEXT
  5
8F62
330
8DB2
100
AcDbEntity
  8
标注线
 48
5.0
100
AcDbMText
 10
1469.459912075976
 20
163.3991383137112
 30
0.0
 40
0.65
 41
0.0
 71
     5
 72
     1
  1
\A1;5 1/2"
 11
0.0000000000000001
 21
1.0
 31
0.0
 73
     1
 44
1.0
1001
ACAD
1000
MTEXTBEGIN
1070
    73
1070
     1
1070
    44
1040
1.0
1070
    74
1070
     0
1000
MTEXTEND
  0
SOLID
  5
8F63
330
8DB2
100
AcDbEntity
  8
标注线
 48
5.0
100
AcDbTrace
 10
1469.351578742643
 20
164.9691574371432
 30
0.0
 11
1469.568245409309
 21
164.9691574371432
 31
0.0
 12
1469.459912075976
 22
165.6191574371432
 32
0.0
 13
1469.459912075976
 23
165.6191574371432
 33
0.0
  0
SOLID
  5
8F64
330
8DB2
100
AcDbEntity
  8
标注线
 48
5.0
100
AcDbTrace
 10
1469.351578742643
 20
160.7691779770261
 30
0.0
 11
1469.568245409309
 21
160.7691779770261
 31
0.0
 12
1469.459912075976
 22
160.1191779770261
 32
0.0
 13
1469.459912075976
 23
160.1191779770261
 33
0.0
  0
POINT
  5
8F65
330
8DB2
100
AcDbEntity
  8
DEFPOINTS
 62
     0
 48
5.0
100
AcDbPoint
 10
1467.613805820468
 20
165.6191574371432
 30
0.0
  0
POINT
  5
8F66
330
8DB2
100
AcDbEntity
  8
DEFPOINTS
 62
     0
 48
5.0
100
AcDbPoint
 10
1467.124293714753
 20
160.1191779770261
 30
0.0
  0
POINT
  5
8F67
330
8DB2
100
AcDbEntity
  8
DEFPOINTS
 62
     0
 48
5.0
100
AcDbPoint
 10
1469.459912075976
 20
160.1191779770261
 30
0.0
  0
ENDBLK
  5
8DB4
330
8DB2
100
AcDbEntity
  8
0
100
AcDbBlockEnd
  0
BLOCK
  5
8DC1
330
8DC0
100
AcDbEntity
  8
0
100
AcDbBlockBegin
  2
*D31
 70
     1
 10
0.0
 20
0.0
 30
0.0
  3
*D31
  1

  0
ARC
  5
8F17
330
8DC0
100
AcDbEntity
  8
标注线
 48
5.0
370
    -2
100
AcDbCircle
 10
1440.613859820468
 20
169.3676740260833
 30
0.0
 40
2.049122295258144
100
AcDbArc
 50
237.5014685398395
 51
255.7532789592215
  0
ARC
  5
8F18
330
8DC0
100
AcDbEntity
  8
标注线
 48
5.0
370
    -2
100
AcDbCircle
 10
1440.613859820468
 20
169.3676740260833
 30
0.0
 40
2.049122295258144
100
AcDbArc
 50
18.25181041938238
 51
36.50362083876437
  0
ARC
  5
8F19
330
8DC0
100
AcDbEntity
  8
标注线
 48
5.0
370
    -2
100
AcDbCircle
 10
1440.613859820468
 20
169.3676740260833
 30
0.0
 40
2.049122295258144
100
AcDbArc
 50
274.0050893786034
 51
0.0000000000004796
  0
SOLID
  5
8F1A
330
8DC0
100
AcDbEntity
  8
标注线
 48
5.0
100
AcDbTrace
 10
1440.119244697784
 20
167.4894734399104
 30
0.0
 11
1440.099905863663
 21
167.2736715540537
 31
0.0
 12
1440.756980938293
 22
167.3235559946195
 32
0.0
 13
1440.756980938293
 23
167.3235559946195
 33
0.0
  0
SOLID
  5
8F1B
330
8DC0
100
AcDbEntity
  8
标注线
 48
5.0
100
AcDbTrace
 10
1442.666851267553
 20
170.0266286078075
 30
0.0
 11
1442.452927124733
 21
169.99226430128
 31
0.0
 12
1442.662982115726
 22
169.3676740260833
 32
0.0
 13
1442.662982115726
 23
169.3676740260833
 33
0.0
  0
MTEXT
  5
8F1C
102
{ACAD_XDICTIONARY
360
9938
102
}
330
8DC0
100
AcDbEntity
  8
标注线
 48
5.0
100
AcDbMText
 10
1442.055056688523
 20
167.9110156006337
 30
0.0
 40
0.65
 41
0.0
 71
     5
 72
     1
  1
\A1;86\U+00B0"
 11
0.7108694433810441
 21
0.7033239896854968
 31
0.0
 73
     1
 44
1.0
1001
ACAD
1000
MTEXTBEGIN
1070
    73
1070
     1
1070
    44
1040
1.0
1070
    74
1070
     0
1000
MTEXTEND
  0
POINT
  5
8F1D
330
8DC0
100
AcDbEntity
  8
DEFPOINTS
 62
     0
 48
5.0
100
AcDbPoint
 10
1442.411840870238
 20
168.3847364260332
 30
0.0
  0
POINT
  5
8F1E
330
8DC0
100
AcDbEntity
  8
DEFPOINTS
 62
     0
 48
5.0
100
AcDbPoint
 10
1440.620269826818
 20
169.2761235284252
 30
0.0
  0
POINT
  5
8F1F
330
8DC0
100
AcDbEntity
  8
DEFPOINTS
 62
     0
 48
5.0
100
AcDbPoint
 10
1466.705582445517
 20
169.3676740260836
 30
0.0
  0
POINT
  5
8F20
330
8DC0
100
AcDbEntity
  8
DEFPOINTS
 62
     0
 48
5.0
100
AcDbPoint
 10
1440.522085195408
 20
169.3676740260834
 30
0.0
  0
POINT
  5
8F21
330
8DC0
100
AcDbEntity
  8
DEFPOINTS
 62
     0
 48
5.0
100
AcDbPoint
 10
1441.057598201821
 20
163.0300095335388
 30
0.0
  0
ENDBLK
  5
8DC2
330
8DC0
100
AcDbEntity
  8
0
100
AcDbBlockEnd
  0
BLOCK
  5
8DCF
330
8DCE
100
AcDbEntity
  8
0
100
AcDbBlockBegin
  2
*D32
 70
     1
 10
0.0
 20
0.0
 30
0.0
  3
*D32
  1

  0
LINE
  5
8EDB
330
8DCE
100
AcDbEntity
  8
标注线
 48
5.0
370
    -2
100
AcDbLine
 10
1466.903257820461
 20
150.1014171364933
 30
0.0
 11
1470.124833365198
 21
150.1014171364933
 31
0.0
  0
LINE
  5
8EDC
330
8DCE
100
AcDbEntity
  8
标注线
 48
5.0
370
    -2
100
AcDbLine
 10
1466.903257820461
 20
133.6014501365117
 30
0.0
 11
1470.124833365198
 21
133.6014501365117
 31
0.0
  0
LINE
  5
8EDD
330
8DCE
100
AcDbEntity
  8
标注线
 48
5.0
370
    -2
100
AcDbLine
 10
1469.804833365198
 20
149.4514171364933
 30
0.0
 11
1469.804833365198
 21
143.504196255875
 31
0.0
  0
LINE
  5
8EDE
330
8DCE
100
AcDbEntity
  8
标注线
 48
5.0
370
    -2
100
AcDbLine
 10
1469.804833365198
 20
134.2514501365117
 30
0.0
 11
1469.804833365198
 21
140.19867101713
 31
0.0
  0
MTEXT
  5
8EDF
330
8DCE
100
AcDbEntity
  8
标注线
 48
5.0
100
AcDbMText
 10
1469.804833365198
 20
141.8514336365027
 30
0.0
 40
0.65
 41
0.0
 71
     5
 72
     1
  1
\A1;16 1/2"
 11
0.0000000000000001
 21
1.0
 31
0.0
 73
     1
 44
1.0
1001
ACAD
1000
MTEXTBEGIN
1070
    73
1070
     1
1070
    44
1040
1.0
1070
    74
1070
     0
1000
MTEXTEND
  0
SOLID
  5
8EE0
330
8DCE
100
AcDbEntity
  8
标注线
 48
5.0
100
AcDbTrace
 10
1469.696500031865
 20
149.4514171364933
 30
0.0
 11
1469.913166698531
 21
149.4514171364933
 31
0.0
 12
1469.804833365198
 22
150.1014171364933
 32
0.0
 13
1469.804833365198
 23
150.1014171364933
 33
0.0
  0
SOLID
  5
8EE1
330
8DCE
100
AcDbEntity
  8
标注线
 48
5.0
100
AcDbTrace
 10
1469.696500031865
 20
134.2514501365117
 30
0.0
 11
1469.913166698531
 21
134.2514501365117
 31
0.0
 12
1469.804833365198
 22
133.6014501365117
 32
0.0
 13
1469.804833365198
 23
133.6014501365117
 33
0.0
  0
POINT
  5
8EE2
330
8DCE
100
AcDbEntity
  8
DEFPOINTS
 62
     0
 48
5.0
100
AcDbPoint
 10
1466.023257820461
 20
150.1014171364933
 30
0.0
  0
POINT
  5
8EE3
330
8DCE
100
AcDbEntity
  8
DEFPOINTS
 62
     0
 48
5.0
100
AcDbPoint
 10
1466.023257820461
 20
133.6014501365117
 30
0.0
  0
POINT
  5
8EE4
330
8DCE
100
AcDbEntity
  8
DEFPOINTS
 62
     0
 48
5.0
100
AcDbPoint
 10
1469.804833365198
 20
133.6014501365117
 30
0.0
  0
ENDBLK
  5
8DD0
330
8DCE
100
AcDbEntity
  8
0
100
AcDbBlockEnd
  0
BLOCK
  5
8DDD
330
8DDC
100
AcDbEntity
  8
0
100
AcDbBlockBegin
  2
*D33
 70
     1
 10
0.0
 20
0.0
 30
0.0
  3
*D33
  1

  0
LINE
  5
8EBD
330
8DDC
100
AcDbEntity
  8
标注线
 48
5.0
370
    -2
100
AcDbLine
 10
1467.560736820448
 20
151.1014151365071
 30
0.0
 11
1471.989483215637
 21
151.1014151365071
 31
0.0
  0
LINE
  5
8EBE
330
8DDC
100
AcDbEntity
  8
标注线
 48
5.0
370
    -2
100
AcDbLine
 10
1467.493807820454
 20
132.6014521364978
 30
0.0
 11
1471.989483215637
 21
132.6014521364978
 31
0.0
  0
LINE
  5
8EBF
330
8DDC
100
AcDbEntity
  8
标注线
 48
5.0
370
    -2
100
AcDbLine
 10
1471.669483215636
 20
150.4514151365071
 30
0.0
 11
1471.669483215636
 21
143.504196255875
 31
0.0
  0
LINE
  5
8EC0
330
8DDC
100
AcDbEntity
  8
标注线
 48
5.0
370
    -2
100
AcDbLine
 10
1471.669483215636
 20
133.2514521364978
 30
0.0
 11
1471.669483215636
 21
140.19867101713
 31
0.0
  0
MTEXT
  5
8EC1
330
8DDC
100
AcDbEntity
  8
标注线
 48
5.0
100
AcDbMText
 10
1471.669483215636
 20
141.8514336365027
 30
0.0
 40
0.65
 41
0.0
 71
     5
 72
     1
  1
\A1;18 1/2"
 11
0.0000000000000001
 21
1.0
 31
0.0
 73
     1
 44
1.0
1001
ACAD
1000
MTEXTBEGIN
1070
    73
1070
     1
1070
    44
1040
1.0
1070
    74
1070
     0
1000
MTEXTEND
  0
SOLID
  5
8EC2
330
8DDC
100
AcDbEntity
  8
标注线
 48
5.0
100
AcDbTrace
 10
1471.561149882303
 20
150.4514151365071
 30
0.0
 11
1471.77781654897
 21
150.4514151365071
 31
0.0
 12
1471.669483215636
 22
151.1014151365071
 32
0.0
 13
1471.669483215636
 23
151.1014151365071
 33
0.0
  0
SOLID
  5
8EC3
330
8DDC
100
AcDbEntity
  8
标注线
 48
5.0
100
AcDbTrace
 10
1471.561149882303
 20
133.2514521364978
 30
0.0
 11
1471.77781654897
 21
133.2514521364978
 31
0.0
 12
1471.669483215636
 22
132.6014521364978
 32
0.0
 13
1471.669483215636
 23
132.6014521364978
 33
0.0
  0
POINT
  5
8EC4
330
8DDC
100
AcDbEntity
  8
DEFPOINTS
 62
     0
 48
5.0
100
AcDbPoint
 10
1466.680736820447
 20
151.1014151365071
 30
0.0
  0
POINT
  5
8EC5
330
8DDC
100
AcDbEntity
  8
DEFPOINTS
 62
     0
 48
5.0
100
AcDbPoint
 10
1466.613807820454
 20
132.6014521364978
 30
0.0
  0
POINT
  5
8EC6
330
8DDC
100
AcDbEntity
  8
DEFPOINTS
 62
     0
 48
5.0
100
AcDbPoint
 10
1471.669483215636
 20
132.6014521364978
 30
0.0
  0
ENDBLK
  5
8DDE
330
8DDC
100
AcDbEntity
  8
0
100
AcDbBlockEnd
  0
BLOCK
  5
8DEB
330
8DEA
100
AcDbEntity
  8
0
100
AcDbBlockBegin
  2
*D34
 70
     1
 10
0.0
 20
0.0
 30
0.0
  3
*D34
  1

  0
LINE
  5
8ED1
330
8DEA
100
AcDbEntity
  8
标注线
 48
5.0
370
    -2
100
AcDbLine
 10
1439.613861820458
 20
132.6545211365185
 30
0.0
 11
1439.613861820458
 21
128.2923626031896
 31
0.0
  0
LINE
  5
8ED2
330
8DEA
100
AcDbEntity
  8
标注线
 48
5.0
370
    -2
100
AcDbLine
 10
1467.613805820468
 20
132.8240455406805
 30
0.0
 11
1467.613805820468
 21
128.2923626031896
 31
0.0
  0
LINE
  5
8ED3
330
8DEA
100
AcDbEntity
  8
标注线
 48
5.0
370
    -2
100
AcDbLine
 10
1440.263861820458
 20
128.6123626031896
 30
0.0
 11
1452.68223422974
 21
128.6123626031896
 31
0.0
  0
LINE
  5
8ED4
330
8DEA
100
AcDbEntity
  8
标注线
 48
5.0
370
    -2
100
AcDbLine
 10
1466.963805820468
 20
128.6123626031896
 30
0.0
 11
1454.545433411186
 21
128.6123626031896
 31
0.0
  0
SOLID
  5
8ED5
330
8DEA
100
AcDbEntity
  8
标注线
 48
5.0
100
AcDbTrace
 10
1440.263861820458
 20
128.7206959365229
 30
0.0
 11
1440.263861820458
 21
128.5040292698562
 31
0.0
 12
1439.613861820458
 22
128.6123626031896
 32
0.0
 13
1439.613861820458
 23
128.6123626031896
 33
0.0
  0
SOLID
  5
8ED6
330
8DEA
100
AcDbEntity
  8
标注线
 48
5.0
100
AcDbTrace
 10
1466.963805820468
 20
128.7206959365229
 30
0.0
 11
1466.963805820468
 21
128.5040292698562
 31
0.0
 12
1467.613805820468
 22
128.6123626031896
 32
0.0
 13
1467.613805820468
 23
128.6123626031896
 33
0.0
  0
MTEXT
  5
8ED7
330
8DEA
100
AcDbEntity
  8
标注线
 48
5.0
100
AcDbMText
 10
1453.613833820463
 20
128.6123626031896
 30
0.0
 40
0.65
 41
0.0
 71
     5
 72
     1
  1
\A1;28"
 73
     1
 44
1.0
1001
ACAD
1000
MTEXTBEGIN
1070
    73
1070
     1
1070
    44
1040
1.0
1070
    74
1070
     0
1000
MTEXTEND
  0
POINT
  5
8ED8
330
8DEA
100
AcDbEntity
  8
DEFPOINTS
 62
     0
 48
5.0
100
AcDbPoint
 10
1439.613861820458
 20
133.5345211365185
 30
0.0
  0
POINT
  5
8ED9
330
8DEA
100
AcDbEntity
  8
DEFPOINTS
 62
     0
 48
5.0
100
AcDbPoint
 10
1467.613805820468
 20
133.7040455406805
 30
0.0
  0
POINT
  5
8EDA
330
8DEA
100
AcDbEntity
  8
DEFPOINTS
 62
     0
 48
5.0
100
AcDbPoint
 10
1467.613805820468
 20
128.6123626031896
 30
0.0
  0
ENDBLK
  5
8DEC
330
8DEA
100
AcDbEntity
  8
0
100
AcDbBlockEnd
  0
BLOCK
  5
8DF9
330
8DF8
100
AcDbEntity
  8
0
100
AcDbBlockBegin
  2
*D35
 70
     1
 10
0.0
 20
0.0
 30
0.0
  3
*D35
  1

  0
LINE
  5
8EA9
330
8DF8
100
AcDbEntity
  8
标注线
 48
5.0
370
    -2
100
AcDbLine
 10
1440.613859820472
 20
133.4077742967376
 30
0.0
 11
1440.613859820472
 21
130.1586813724769
 31
0.0
  0
LINE
  5
8EAA
330
8DF8
100
AcDbEntity
  8
标注线
 48
5.0
370
    -2
100
AcDbLine
 10
1466.613807820454
 20
133.3120001365053
 30
0.0
 11
1466.613807820454
 21
130.1586813724769
 31
0.0
  0
LINE
  5
8EAB
330
8DF8
100
AcDbEntity
  8
标注线
 48
5.0
370
    -2
100
AcDbLine
 10
1441.263859820472
 20
130.4786813724769
 30
0.0
 11
1452.68223422974
 21
130.4786813724769
 31
0.0
  0
LINE
  5
8EAC
330
8DF8
100
AcDbEntity
  8
标注线
 48
5.0
370
    -2
100
AcDbLine
 10
1465.963807820454
 20
130.4786813724769
 30
0.0
 11
1454.545433411186
 21
130.4786813724769
 31
0.0
  0
SOLID
  5
8EAD
330
8DF8
100
AcDbEntity
  8
标注线
 48
5.0
100
AcDbTrace
 10
1441.263859820472
 20
130.5870147058102
 30
0.0
 11
1441.263859820472
 21
130.3703480391436
 31
0.0
 12
1440.613859820472
 22
130.4786813724769
 32
0.0
 13
1440.613859820472
 23
130.4786813724769
 33
0.0
  0
SOLID
  5
8EAE
330
8DF8
100
AcDbEntity
  8
标注线
 48
5.0
100
AcDbTrace
 10
1465.963807820454
 20
130.5870147058102
 30
0.0
 11
1465.963807820454
 21
130.3703480391436
 31
0.0
 12
1466.613807820454
 22
130.4786813724769
 32
0.0
 13
1466.613807820454
 23
130.4786813724769
 33
0.0
  0
MTEXT
  5
8EAF
330
8DF8
100
AcDbEntity
  8
标注线
 48
5.0
100
AcDbMText
 10
1453.613833820463
 20
130.4786813724769
 30
0.0
 40
0.65
 41
0.0
 71
     5
 72
     1
  1
\A1;26"
 73
     1
 44
1.0
1001
ACAD
1000
MTEXTBEGIN
1070
    73
1070
     1
1070
    44
1040
1.0
1070
    74
1070
     0
1000
MTEXTEND
  0
POINT
  5
8EB0
330
8DF8
100
AcDbEntity
  8
DEFPOINTS
 62
     0
 48
5.0
100
AcDbPoint
 10
1440.613859820472
 20
134.2877742967376
 30
0.0
  0
POINT
  5
8EB1
330
8DF8
100
AcDbEntity
  8
DEFPOINTS
 62
     0
 48
5.0
100
AcDbPoint
 10
1466.613807820454
 20
134.1920001365052
 30
0.0
  0
POINT
  5
8EB2
330
8DF8
100
AcDbEntity
  8
DEFPOINTS
 62
     0
 48
5.0
100
AcDbPoint
 10
1466.613807820454
 20
130.4786813724769
 30
0.0
  0
ENDBLK
  5
8DFA
330
8DF8
100
AcDbEntity
  8
0
100
AcDbBlockEnd
  0
BLOCK
  5
8E12
330
8E11
100
AcDbEntity
  8
0
100
AcDbBlockBegin
  2
*D36
 70
     1
 10
0.0
 20
0.0
 30
0.0
  3
*D36
  1

  0
LINE
  5
8EF9
330
8E11
100
AcDbEntity
  8
标注线
 48
5.0
370
    -2
100
AcDbLine
 10
1441.530722475059
 20
163.1027306223143
 30
0.0
 11
1441.530722475059
 21
161.5268067058112
 31
0.0
  0
LINE
  5
8EFA
330
8E11
100
AcDbEntity
  8
标注线
 48
5.0
370
    -2
100
AcDbLine
 10
1465.877119790968
 20
163.1060337331466
 30
0.0
 11
1465.877119790968
 21
161.5268067058112
 31
0.0
  0
LINE
  5
8EFB
330
8E11
100
AcDbEntity
  8
标注线
 48
5.0
370
    -2
100
AcDbLine
 10
1442.180722475059
 20
161.8468067058112
 30
0.0
 11
1451.721946371758
 21
161.8468067058112
 31
0.0
  0
LINE
  5
8EFC
330
8E11
100
AcDbEntity
  8
标注线
 48
5.0
370
    -2
100
AcDbLine
 10
1465.227119790968
 20
161.8468067058112
 30
0.0
 11
1455.685895894268
 21
161.8468067058112
 31
0.0
  0
MTEXT
  5
8EFD
330
8E11
100
AcDbEntity
  8
标注线
 48
5.0
100
AcDbMText
 10
1453.703921133013
 20
161.8468067058112
 30
0.0
 40
0.65
 41
0.0
 71
     5
 72
     1
  1
\A1;(24 3/8")
 73
     1
 44
1.0
1001
ACAD
1000
MTEXTBEGIN
1070
    73
1070
     1
1070
    44
1040
1.0
1070
    74
1070
     0
1000
MTEXTEND
  0
SOLID
  5
8EFE
330
8E11
100
AcDbEntity
  8
标注线
 48
5.0
100
AcDbTrace
 10
1442.180722475059
 20
161.9551400391445
 30
0.0
 11
1442.180722475059
 21
161.7384733724779
 31
0.0
 12
1441.530722475059
 22
161.8468067058112
 32
0.0
 13
1441.530722475059
 23
161.8468067058112
 33
0.0
  0
SOLID
  5
8EFF
330
8E11
100
AcDbEntity
  8
标注线
 48
5.0
100
AcDbTrace
 10
1465.227119790968
 20
161.9551400391445
 30
0.0
 11
1465.227119790968
 21
161.7384733724779
 31
0.0
 12
1465.877119790968
 22
161.8468067058112
 32
0.0
 13
1465.877119790968
 23
161.8468067058112
 33
0.0
  0
POINT
  5
8F00
330
8E11
100
AcDbEntity
  8
DEFPOINTS
 62
     0
 48
5.0
100
AcDbPoint
 10
1441.530722475059
 20
163.9827306223143
 30
0.0
  0
POINT
  5
8F01
330
8E11
100
AcDbEntity
  8
DEFPOINTS
 62
     0
 48
5.0
100
AcDbPoint
 10
1465.877119790968
 20
163.9860337331466
 30
0.0
  0
POINT
  5
8F02
330
8E11
100
AcDbEntity
  8
DEFPOINTS
 62
     0
 48
5.0
100
AcDbPoint
 10
1465.877119790968
 20
161.8468067058112
 30
0.0
  0
ENDBLK
  5
8E13
330
8E11
100
AcDbEntity
  8
0
100
AcDbBlockEnd
  0
BLOCK
  5
8E2B
330
8E2A
100
AcDbEntity
  8
0
100
AcDbBlockBegin
  2
*D37
 70
     1
 10
0.0
 20
0.0
 30
0.0
  3
*D37
  1

  0
LINE
  5
8EE5
330
8E2A
100
AcDbEntity
  8
标注线
 48
5.0
370
    -2
100
AcDbLine
 10
1440.535119820475
 20
101.4658023082664
 30
0.0
 11
1440.535119820475
 21
98.85481829680289
 31
0.0
  0
LINE
  5
8EE6
330
8E2A
100
AcDbEntity
  8
标注线
 48
5.0
370
    -2
100
AcDbLine
 10
1466.692547820481
 20
101.4658023082664
 30
0.0
 11
1466.692547820481
 21
98.85481829680289
 31
0.0
  0
LINE
  5
8EE7
330
8E2A
100
AcDbEntity
  8
标注线
 48
5.0
370
    -2
100
AcDbLine
 10
1441.185119820475
 20
99.17481829680289
 30
0.0
 11
1451.924935457586
 21
99.17481829680289
 31
0.0
  0
LINE
  5
8EE8
330
8E2A
100
AcDbEntity
  8
标注线
 48
5.0
370
    -2
100
AcDbLine
 10
1466.042547820481
 20
99.17481829680289
 30
0.0
 11
1455.30273218337
 21
99.17481829680289
 31
0.0
  0
SOLID
  5
8EE9
330
8E2A
100
AcDbEntity
  8
标注线
 48
5.0
100
AcDbTrace
 10
1441.185119820475
 20
99.28315163013621
 30
0.0
 11
1441.185119820475
 21
99.06648496346956
 31
0.0
 12
1440.535119820475
 22
99.17481829680289
 32
0.0
 13
1440.535119820475
 23
99.17481829680289
 33
0.0
  0
SOLID
  5
8EEA
330
8E2A
100
AcDbEntity
  8
标注线
 48
5.0
100
AcDbTrace
 10
1466.042547820481
 20
99.28315163013621
 30
0.0
 11
1466.042547820481
 21
99.06648496346956
 31
0.0
 12
1466.692547820481
 22
99.17481829680289
 32
0.0
 13
1466.692547820481
 23
99.17481829680289
 33
0.0
  0
MTEXT
  5
8EEB
330
8E2A
100
AcDbEntity
  8
标注线
 48
5.0
100
AcDbMText
 10
1453.613833820478
 20
99.17481829680289
 30
0.0
 40
0.65
 41
0.0
 71
     5
 72
     1
  1
\A1;26 1/8"
 73
     1
 44
1.0
1001
ACAD
1000
MTEXTBEGIN
1070
    73
1070
     1
1070
    44
1040
1.0
1070
    74
1070
     0
1000
MTEXTEND
  0
POINT
  5
8EEC
330
8E2A
100
AcDbEntity
  8
DEFPOINTS
 62
     0
 48
5.0
100
AcDbPoint
 10
1440.535119820475
 20
102.3458023082664
 30
0.0
  0
POINT
  5
8EED
330
8E2A
100
AcDbEntity
  8
DEFPOINTS
 62
     0
 48
5.0
100
AcDbPoint
 10
1466.692547820481
 20
102.3458023082664
 30
0.0
  0
POINT
  5
8EEE
330
8E2A
100
AcDbEntity
  8
DEFPOINTS
 62
     0
 48
5.0
100
AcDbPoint
 10
1466.692547820481
 20
99.17481829680289
 30
0.0
  0
ENDBLK
  5
8E2C
330
8E2A
100
AcDbEntity
  8
0
100
AcDbBlockEnd
  0
BLOCK
  5
8E39
330
8E38
100
AcDbEntity
  8
0
100
AcDbBlockBegin
  2
*D38
 70
     1
 10
0.0
 20
0.0
 30
0.0
  3
*D38
  1

  0
LINE
  5
8EC7
330
8E38
100
AcDbEntity
  8
标注线
 48
5.0
370
    -2
100
AcDbLine
 10
1466.341599368776
 20
101.3779198426911
 30
0.0
 11
1469.190655516074
 21
101.3779198426911
 31
0.0
  0
LINE
  5
8EC8
330
8E38
100
AcDbEntity
  8
标注线
 48
5.0
370
    -2
100
AcDbLine
 10
1466.341599368776
 20
118.0353668426961
 30
0.0
 11
1469.190655516074
 21
118.0353668426961
 31
0.0
  0
LINE
  5
8EC9
330
8E38
100
AcDbEntity
  8
标注线
 48
5.0
370
    -2
100
AcDbLine
 10
1468.870655516074
 20
102.0279198426911
 30
0.0
 11
1468.870655516074
 21
108.0538807233212
 31
0.0
  0
LINE
  5
8ECA
330
8E38
100
AcDbEntity
  8
标注线
 48
5.0
370
    -2
100
AcDbLine
 10
1468.870655516074
 20
117.3853668426961
 30
0.0
 11
1468.870655516074
 21
111.359405962066
 31
0.0
  0
SOLID
  5
8ECB
330
8E38
100
AcDbEntity
  8
标注线
 48
5.0
100
AcDbTrace
 10
1468.762322182741
 20
102.0279198426911
 30
0.0
 11
1468.978988849407
 21
102.0279198426911
 31
0.0
 12
1468.870655516074
 22
101.3779198426911
 32
0.0
 13
1468.870655516074
 23
101.3779198426911
 33
0.0
  0
SOLID
  5
8ECC
330
8E38
100
AcDbEntity
  8
标注线
 48
5.0
100
AcDbTrace
 10
1468.762322182741
 20
117.3853668426961
 30
0.0
 11
1468.978988849407
 21
117.3853668426961
 31
0.0
 12
1468.870655516074
 22
118.0353668426961
 32
0.0
 13
1468.870655516074
 23
118.0353668426961
 33
0.0
  0
MTEXT
  5
8ECD
330
8E38
100
AcDbEntity
  8
标注线
 48
5.0
100
AcDbMText
 10
1468.870655516074
 20
109.7066433426938
 30
0.0
 40
0.65
 41
0.0
 71
     5
 72
     1
  1
\A1;16 5/8"
 11
0.0000000000000001
 21
1.0
 31
0.0
 73
     1
 44
1.0
1001
ACAD
1000
MTEXTBEGIN
1070
    73
1070
     1
1070
    44
1040
1.0
1070
    74
1070
     0
1000
MTEXTEND
  0
POINT
  5
8ECE
330
8E38
100
AcDbEntity
  8
DEFPOINTS
 62
     0
 48
5.0
100
AcDbPoint
 10
1465.461599368776
 20
101.3779198426911
 30
0.0
  0
POINT
  5
8ECF
330
8E38
100
AcDbEntity
  8
DEFPOINTS
 62
     0
 48
5.0
100
AcDbPoint
 10
1465.461599368776
 20
118.0353668426961
 30
0.0
  0
POINT
  5
8ED0
330
8E38
100
AcDbEntity
  8
DEFPOINTS
 62
     0
 48
5.0
100
AcDbPoint
 10
1468.870655516074
 20
118.0353668426961
 30
0.0
  0
ENDBLK
  5
8E3A
330
8E38
100
AcDbEntity
  8
0
100
AcDbBlockEnd
  0
BLOCK
  5
8FA0
330
8F9F
100
AcDbEntity
  8
0
 48
5.0
100
AcDbBlockBegin
  2
U
 70
     0
 10
0.0
 20
0.0
 30
0.0
  3
U
  1

  0
LINE
  5
8FA1
330
8F9F
100
AcDbEntity
  8
剖面线
100
AcDbLine
 10
29270.83430877619
 20
-102712.7043205142
 30
0.0
 11
29270.83430877619
 21
-102699.7043205142
 31
0.0
  0
LINE
  5
8FA2
330
8F9F
100
AcDbEntity
  8
剖面线
100
AcDbLine
 10
29269.71479658119
 20
-102709.5287107577
 30
0.0
 11
29270.43918682517
 21
-102712.7482229532
 31
0.0
  0
ARC
  5
8FA3
330
8F9F
100
AcDbEntity
  8
剖面线
100
AcDbCircle
 10
29270.63430877618
 20
-102712.7043205142
 30
0.0
 40
0.2
100
AcDbArc
 50
192.6803834918706
 51
0.0
  0
ARC
  5
8FA4
330
8F9F
100
AcDbEntity
  8
剖面线
100
AcDbCircle
 10
29270.63430877618
 20
-102712.7043205142
 30
0.0
 40
1.0
100
AcDbArc
 50
192.6803834918706
 51
0.0
  0
LINE
  5
8FA5
330
8F9F
100
AcDbEntity
  8
剖面线
100
AcDbLine
 10
29269.65869902019
 20
-102712.9238327092
 30
0.0
 11
29268.93430877619
 21
-102709.7043205142
 31
0.0
  0
LINE
  5
8FA6
330
8F9F
100
AcDbEntity
  8
剖面线
100
AcDbLine
 10
29268.93430877619
 20
-102709.7043205142
 30
0.0
 11
29269.71479658119
 21
-102709.5287107577
 31
0.0
  0
LINE
  5
8FA7
330
8F9F
100
AcDbEntity
  8
剖面线
100
AcDbLine
 10
29271.63430877616
 20
-102699.7043205142
 30
0.0
 11
29271.63430877616
 21
-102712.7043205142
 31
0.0
  0
ARC
  5
8FA8
330
8F9F
100
AcDbEntity
  8
剖面线
100
AcDbCircle
 10
29269.63430877619
 20
-102699.7043205142
 30
0.0
 40
2.0
100
AcDbArc
 50
0.0
 51
90.0
  0
ARC
  5
8FA9
330
8F9F
100
AcDbEntity
  8
剖面线
100
AcDbCircle
 10
29269.63430877619
 20
-102699.7043205142
 30
0.0
 40
1.199999999999999
100
AcDbArc
 50
0.0
 51
90.0
  0
LINE
  5
8FAA
330
8F9F
100
AcDbEntity
  8
剖面线
100
AcDbLine
 10
29269.63430877619
 20
-102698.5043205142
 30
0.0
 11
29261.63430877616
 21
-102698.5043205142
 31
0.0
  0
LINE
  5
8FAB
330
8F9F
100
AcDbEntity
  8
剖面线
100
AcDbLine
 10
29269.63430877619
 20
-102697.7043205142
 30
0.0
 11
29261.63430877616
 21
-102697.7043205142
 31
0.0
  0
ARC
  5
8FAC
330
8F9F
100
AcDbEntity
  8
剖面线
100
AcDbCircle
 10
29261.63430877616
 20
-102699.7043205142
 30
0.0
 40
1.199999999999999
100
AcDbArc
 50
90.0
 51
180.0
  0
ARC
  5
8FAD
330
8F9F
100
AcDbEntity
  8
剖面线
100
AcDbCircle
 10
29261.63430877616
 20
-102699.7043205142
 30
0.0
 40
2.0
100
AcDbArc
 50
90.0
 51
180.0
  0
LINE
  5
8FAE
330
8F9F
100
AcDbEntity
  8
剖面线
100
AcDbLine
 10
29260.43430877617
 20
-102699.7043205142
 30
0.0
 11
29260.43430877617
 21
-102712.7043205142
 31
0.0
  0
LINE
  5
8FAF
330
8F9F
100
AcDbEntity
  8
剖面线
100
AcDbLine
 10
29259.63430877619
 20
-102712.7043205142
 30
0.0
 11
29259.63430877619
 21
-102699.7043205142
 31
0.0
  0
ARC
  5
8FB0
330
8F9F
100
AcDbEntity
  8
剖面线
100
AcDbCircle
 10
29260.63430877618
 20
-102712.7043205142
 30
0.0
 40
1.0
100
AcDbArc
 50
180.0
 51
347.3196165081294
  0
ARC
  5
8FB1
330
8F9F
100
AcDbEntity
  8
剖面线
100
AcDbCircle
 10
29260.63430877618
 20
-102712.7043205142
 30
0.0
 40
0.2
100
AcDbArc
 50
180.0
 51
347.3196165081294
  0
LINE
  5
8FB2
330
8F9F
100
AcDbEntity
  8
剖面线
100
AcDbLine
 10
29260.82943072718
 20
-102712.7482229532
 30
0.0
 11
29261.55382097117
 21
-102709.5287107577
 31
0.0
  0
LINE
  5
8FB3
330
8F9F
100
AcDbEntity
  8
剖面线
100
AcDbLine
 10
29262.33430877616
 20
-102709.7043205142
 30
0.0
 11
29261.60991853216
 21
-102712.9238327092
 31
0.0
  0
LINE
  5
8FB4
330
8F9F
100
AcDbEntity
  8
剖面线
100
AcDbLine
 10
29261.55382097117
 20
-102709.5287107577
 30
0.0
 11
29262.33430877616
 21
-102709.7043205142
 31
0.0
  0
HATCH
  5
8FB5
330
8F9F
100
AcDbEntity
  8
剖面线
 48
5.0
100
AcDbHatch
 10
0.0
 20
0.0
 30
0.0
210
0.0
220
0.0
230
1.0
  2
ANSI31
 70
     0
 71
     0
 91
        1
 92
        7
 72
     1
 73
     1
 93
       14
 10
29259.63430877619
 20
-102699.7043205142
 42
-0.4142090931800508
 10
29261.63427825858
 20
-102697.7043205145
 42
-0.0000038146972658
 10
29261.63430877616
 20
-102697.7043205142
 42
0.0
 10
29266.26643298832
 20
-102697.7043205142
 42
0.0
 10
29266.26643298831
 20
-102698.5043205142
 42
0.0
 10
29261.63430877616
 20
-102698.5043205142
 42
0.4142135623713193
 10
29260.43430877617
 20
-102699.7043205142
 42
0.0
 10
29260.43430877617
 20
-102712.7043205142
 42
0.8950427888177971
 10
29260.82943072718
 20
-102712.7482229532
 42
0.0
 10
29261.55382097116
 20
-102709.5287107577
 42
0.0
 10
29262.33430877616
 20
-102709.7043205142
 42
0.0
 10
29261.60991853214
 20
-102712.9238327093
 42
-0.8894303225498207
 10
29259.63438689201
 20
-102712.7168195371
 42
-0.003124847264985
 10
29259.63430877619
 20
-102712.7043205143
 42
0.0
 97
        0
 75
     0
 76
     1
 52
90.0
 41
5.0
 77
     0
 78
     1
 53
45.0
 43
72640.05950440644
 44
-29265.22624984574
 45
0.4419417382415923
 46
-0.4419417382415923
 79
     0
 47
0.0791463826083633
 98
        1
 10
29260.01089251075
 20
-102705.3355668703
  0
HATCH
  5
8FB6
330
8F9F
100
AcDbEntity
  8
剖面线
 48
5.0
100
AcDbHatch
 10
0.0
 20
0.0
 30
0.0
210
0.0
220
0.0
230
1.0
  2
ANSI31
 70
     0
 71
     0
 91
        1
 92
        7
 72
     1
 73
     1
 93
       14
 10
29271.63430877616
 20
-102699.7043205142
 42
0.4142090931800508
 10
29269.63433929376
 20
-102697.7043205145
 42
0.0000038146972658
 10
29269.63430877619
 20
-102697.7043205142
 42
0.0
 10
29265.00218456403
 20
-102697.7043205142
 42
0.0
 10
29265.00218456404
 20
-102698.5043205142
 42
0.0
 10
29269.63430877619
 20
-102698.5043205142
 42
-0.4142135623713193
 10
29270.83430877619
 20
-102699.7043205142
 42
0.0
 10
29270.83430877619
 20
-102712.7043205142
 42
-0.8950427888177971
 10
29270.43918682517
 20
-102712.7482229532
 42
0.0
 10
29269.71479658119
 20
-102709.5287107577
 42
0.0
 10
29268.9343087762
 20
-102709.7043205142
 42
0.0
 10
29269.65869902021
 20
-102712.9238327093
 42
0.8894303225498207
 10
29271.63423066034
 20
-102712.7168195371
 42
0.003124847264985
 10
29271.63430877616
 20
-102712.7043205143
 42
0.0
 97
        0
 75
     0
 76
     1
 52
90.0
 41
5.0
 77
     0
 78
     1
 53
45.0
 43
72640.05950440644
 44
-29265.22624984574
 45
0.4419417382415923
 46
-0.4419417382415923
 79
     0
 47
0.0791463826083633
 98
        1
 10
29271.2577250416
 20
-102705.3355668703
  0
HATCH
  5
8FB7
330
8F9F
100
AcDbEntity
  8
剖面线
 48
5.0
100
AcDbHatch
 10
0.0
 20
0.0
 30
0.0
210
0.0
220
0.0
230
1.0
  2
ANSI31
 70
     0
 71
     0
 91
        1
 92
        7
 72
     1
 73
     1
 93
       14
 10
29259.63430877617
 20
-102699.7043205142
 42
-0.4142090931800508
 10
29261.63427825857
 20
-102697.7043205145
 42
-0.0000038146972658
 10
29261.63430877615
 20
-102697.7043205142
 42
0.0
 10
29266.2664329883
 20
-102697.7043205142
 42
0.0
 10
29266.26643298829
 20
-102698.5043205142
 42
0.0
 10
29261.63430877615
 20
-102698.5043205142
 42
0.4142135623713193
 10
29260.43430877616
 20
-102699.7043205142
 42
0.0
 10
29260.43430877616
 20
-102712.7043205142
 42
0.8950427888177971
 10
29260.82943072716
 20
-102712.7482229532
 42
0.0
 10
29261.55382097115
 20
-102709.5287107577
 42
0.0
 10
29262.33430877613
 20
-102709.7043205142
 42
0.0
 10
29261.60991853213
 20
-102712.9238327093
 42
-0.8894303225498207
 10
29259.634386892
 20
-102712.7168195371
 42
-0.003124847264985
 10
29259.63430877617
 20
-102712.7043205143
 42
0.0
 97
        0
 75
     0
 76
     1
 52
90.0
 41
5.0
 77
     0
 78
     1
 53
45.0
 43
72640.05950440641
 44
-29265.22624984574
 45
0.4419417382415923
 46
-0.4419417382415923
 79
     0
 47
0.0791463826083633
 98
        1
 10
29260.01089251073
 20
-102705.3355668703
  0
ENDBLK
  5
8FB8
330
8F9F
100
AcDbEntity
  8
0
 48
5.0
100
AcDbBlockEnd
  0
BLOCK
  5
8FBA
330
8FB9
100
AcDbEntity
  8
0
 48
5.0
100
AcDbBlockBegin
  2
*D40
 70
     1
 10
0.0
 20
0.0
 30
0.0
  3
*D40
  1

  0
LINE
  5
8FBB
330
8FB9
100
AcDbEntity
  8
标注
 62
     0
 48
5.0
370
    -2
100
AcDbLine
 10
170053.7975601418
 20
-65637.51038444224
 30
0.0
 11
170047.8220456506
 21
-65637.51038444224
 31
0.0
  0
LINE
  5
8FBC
330
8FB9
100
AcDbEntity
  8
标注
 62
     0
 48
5.0
370
    -2
100
AcDbLine
 10
170052.3676717006
 20
-65646.51085720758
 30
0.0
 11
170047.8220456506
 21
-65646.51085720758
 31
0.0
  0
LINE
  5
8FBD
330
8FB9
100
AcDbEntity
  8
标注
 62
     0
 48
5.0
370
    -2
100
AcDbLine
 10
170045.8220456506
 20
-65625.51038444224
 30
0.0
 11
170045.8220456506
 21
-65613.51038444224
 31
0.0
  0
LINE
  5
8FBE
330
8FB9
100
AcDbEntity
  8
标注
 62
     0
 48
5.0
370
    -2
100
AcDbLine
 10
170045.8220456506
 20
-65658.51085720758
 30
0.0
 11
170045.8220456506
 21
-65670.51085720758
 31
0.0
  0
LINE
  5
8FBF
330
8FB9
100
AcDbEntity
  8
标注
 62
     0
 48
5.0
370
    -2
100
AcDbLine
 10
170045.8220456506
 20
-65637.51038444224
 30
0.0
 11
170045.8220456506
 21
-65646.51085720758
 31
0.0
  0
SOLID
  5
8FC0
330
8FB9
100
AcDbEntity
  8
标注
 62
     0
 48
5.0
100
AcDbTrace
 10
170043.8220456506
 20
-65625.51038444224
 30
0.0
 11
170047.8220456506
 21
-65625.51038444224
 31
0.0
 12
170045.8220456506
 22
-65637.51038444224
 32
0.0
 13
170045.8220456506
 23
-65637.51038444224
 33
0.0
  0
SOLID
  5
8FC1
330
8FB9
100
AcDbEntity
  8
标注
 62
     0
 48
5.0
100
AcDbTrace
 10
170043.8220456506
 20
-65658.51085720758
 30
0.0
 11
170047.8220456506
 21
-65658.51085720758
 31
0.0
 12
170045.8220456506
 22
-65646.51085720758
 32
0.0
 13
170045.8220456506
 23
-65646.51085720758
 33
0.0
  0
MTEXT
  5
8FC2
330
8FB9
100
AcDbEntity
  8
标注
 62
     0
 48
5.0
100
AcDbMText
 10
170045.8220456507
 20
-65642.01062082488
 30
0.0
 40
12.0
 41
0.0
 71
     5
 72
     1
  1
9
 11
0.0000000000000001
 21
1.0
 31
0.0
 73
     1
 44
1.0
1001
ACAD
1000
MTEXTBEGIN
1070
    73
1070
     1
1070
    44
1040
1.0
1070
    74
1070
     0
1000
MTEXTEND
  0
POINT
  5
8FC3
330
8FB9
100
AcDbEntity
  8
DEFPOINTS
 62
     0
 48
5.0
100
AcDbPoint
 10
170044.7975601418
 20
-65637.51038444224
 30
0.0
  0
POINT
  5
8FC4
330
8FB9
100
AcDbEntity
  8
DEFPOINTS
 62
     0
 48
5.0
100
AcDbPoint
 10
170043.3676717006
 20
-65646.51085720758
 30
0.0
  0
POINT
  5
8FC5
330
8FB9
100
AcDbEntity
  8
DEFPOINTS
 62
     0
 48
5.0
100
AcDbPoint
 10
170045.8220456506
 20
-65646.51085720758
 30
0.0
  0
ENDBLK
  5
8FC6
330
8FB9
100
AcDbEntity
  8
0
 48
5.0
100
AcDbBlockEnd
  0
BLOCK
  5
8FC8
330
8FC7
100
AcDbEntity
  8
0
 48
5.0
100
AcDbBlockBegin
  2
*D41
 70
     1
 10
0.0
 20
0.0
 30
0.0
  3
*D41
  1

  0
LINE
  5
8FC9
330
8FC7
100
AcDbEntity
  8
标注
 62
     0
 48
5.0
370
    -2
100
AcDbLine
 10
170053.2837945036
 20
-65656.9340782076
 30
0.0
 11
170049.6087772828
 21
-65656.9340782076
 31
0.0
  0
LINE
  5
8FCA
330
8FC7
100
AcDbEntity
  8
标注
 62
     0
 48
5.0
370
    -2
100
AcDbLine
 10
170053.3389125036
 20
-65678.9340342076
 30
0.0
 11
170049.6087772828
 21
-65678.9340342076
 31
0.0
  0
LINE
  5
8FCB
330
8FC7
100
AcDbEntity
  8
标注
 62
     0
 48
5.0
370
    -2
100
AcDbLine
 10
170047.6087772828
 20
-65644.9340782076
 30
0.0
 11
170047.6087772828
 21
-65632.9340782076
 31
0.0
  0
LINE
  5
8FCC
330
8FC7
100
AcDbEntity
  8
标注
 62
     0
 48
5.0
370
    -2
100
AcDbLine
 10
170047.6087772828
 20
-65690.9340342076
 30
0.0
 11
170047.6087772828
 21
-65702.9340342076
 31
0.0
  0
LINE
  5
8FCD
330
8FC7
100
AcDbEntity
  8
标注
 62
     0
 48
5.0
370
    -2
100
AcDbLine
 10
170047.6087772828
 20
-65656.9340782076
 30
0.0
 11
170047.6087772828
 21
-65678.9340342076
 31
0.0
  0
SOLID
  5
8FCE
330
8FC7
100
AcDbEntity
  8
标注
 62
     0
 48
5.0
100
AcDbTrace
 10
170045.6087772828
 20
-65644.9340782076
 30
0.0
 11
170049.6087772828
 21
-65644.9340782076
 31
0.0
 12
170047.6087772828
 22
-65656.9340782076
 32
0.0
 13
170047.6087772828
 23
-65656.9340782076
 33
0.0
  0
SOLID
  5
8FCF
330
8FC7
100
AcDbEntity
  8
标注
 62
     0
 48
5.0
100
AcDbTrace
 10
170045.6087772828
 20
-65690.9340342076
 30
0.0
 11
170049.6087772828
 21
-65690.9340342076
 31
0.0
 12
170047.6087772828
 22
-65678.9340342076
 32
0.0
 13
170047.6087772828
 23
-65678.9340342076
 33
0.0
  0
MTEXT
  5
8FD0
330
8FC7
100
AcDbEntity
  8
标注
 62
     0
 48
5.0
100
AcDbMText
 10
170047.6087772828
 20
-65715.50070087424
 30
0.0
 40
12.0
 41
0.0
 71
     5
 72
     1
  1
22
 11
0.0000000000000001
 21
1.0
 31
0.0
 73
     1
 44
1.0
1001
ACAD
1000
MTEXTBEGIN
1070
    73
1070
     1
1070
    44
1040
1.0
1070
    74
1070
     0
1000
MTEXTEND
  0
POINT
  5
8FD1
330
8FC7
100
AcDbEntity
  8
DEFPOINTS
 62
     0
 48
5.0
100
AcDbPoint
 10
170044.2837945036
 20
-65656.9340782076
 30
0.0
  0
POINT
  5
8FD2
330
8FC7
100
AcDbEntity
  8
DEFPOINTS
 62
     0
 48
5.0
100
AcDbPoint
 10
170044.3389125036
 20
-65678.9340342076
 30
0.0
  0
POINT
  5
8FD3
330
8FC7
100
AcDbEntity
  8
DEFPOINTS
 62
     0
 48
5.0
100
AcDbPoint
 10
170047.6087772828
 20
-65678.9340342076
 30
0.0
  0
ENDBLK
  5
8FD4
330
8FC7
100
AcDbEntity
  8
0
 48
5.0
100
AcDbBlockEnd
  0
BLOCK
  5
8FD6
330
8FD5
100
AcDbEntity
  8
0
 48
5.0
100
AcDbBlockBegin
  2
*D42
 70
     1
 10
0.0
 20
0.0
 30
0.0
  3
*D42
  1

  0
LINE
  5
8FD7
330
8FD5
100
AcDbEntity
  8
标注
 62
     0
 48
5.0
370
    -2
100
AcDbLine
 10
170020.0318745036
 20
-65687.73718420761
 30
0.0
 11
170020.0318745036
 21
-65684.36198656391
 31
0.0
  0
LINE
  5
8FD8
330
8FD5
100
AcDbEntity
  8
标注
 62
     0
 48
5.0
370
    -2
100
AcDbLine
 10
170044.5357625036
 20
-65687.73718420761
 30
0.0
 11
170044.5357625036
 21
-65684.36198656391
 31
0.0
  0
LINE
  5
8FD9
330
8FD5
100
AcDbEntity
  8
标注
 62
     0
 48
5.0
370
    -2
100
AcDbLine
 10
170008.0318745036
 20
-65682.36198656392
 30
0.0
 11
169996.0318745036
 21
-65682.36198656392
 31
0.0
  0
LINE
  5
8FDA
330
8FD5
100
AcDbEntity
  8
标注
 62
     0
 48
5.0
370
    -2
100
AcDbLine
 10
170056.5357625036
 20
-65682.36198656392
 30
0.0
 11
170068.5357625036
 21
-65682.36198656392
 31
0.0
  0
LINE
  5
8FDB
330
8FD5
100
AcDbEntity
  8
标注
 62
     0
 48
5.0
370
    -2
100
AcDbLine
 10
170020.0318745036
 20
-65682.36198656392
 30
0.0
 11
170044.5357625036
 21
-65682.36198656392
 31
0.0
  0
SOLID
  5
8FDC
330
8FD5
100
AcDbEntity
  8
标注
 62
     0
 48
5.0
100
AcDbTrace
 10
170008.0318745036
 20
-65680.36198656391
 30
0.0
 11
170008.0318745036
 21
-65684.36198656391
 31
0.0
 12
170020.0318745036
 22
-65682.36198656392
 32
0.0
 13
170020.0318745036
 23
-65682.36198656392
 33
0.0
  0
SOLID
  5
8FDD
330
8FD5
100
AcDbEntity
  8
标注
 62
     0
 48
5.0
100
AcDbTrace
 10
170056.5357625036
 20
-65680.36198656391
 30
0.0
 11
170056.5357625036
 21
-65684.36198656391
 31
0.0
 12
170044.5357625036
 22
-65682.36198656392
 32
0.0
 13
170044.5357625036
 23
-65682.36198656392
 33
0.0
  0
MTEXT
  5
8FDE
330
8FD5
100
AcDbEntity
  8
标注
 62
     0
 48
5.0
100
AcDbMText
 10
170032.2838185036
 20
-65682.36198656392
 30
0.0
 40
12.0
 41
0.0
 71
     5
 72
     1
  1
24,5
 73
     1
 44
1.0
1001
ACAD
1000
MTEXTBEGIN
1070
    73
1070
     1
1070
    44
1040
1.0
1070
    74
1070
     0
1000
MTEXTEND
  0
POINT
  5
8FDF
330
8FD5
100
AcDbEntity
  8
DEFPOINTS
 62
     0
 48
5.0
100
AcDbPoint
 10
170020.0318745036
 20
-65678.73718420761
 30
0.0
  0
POINT
  5
8FE0
330
8FD5
100
AcDbEntity
  8
DEFPOINTS
 62
     0
 48
5.0
100
AcDbPoint
 10
170044.5357625036
 20
-65678.73718420761
 30
0.0
  0
POINT
  5
8FE1
330
8FD5
100
AcDbEntity
  8
DEFPOINTS
 62
     0
 48
5.0
100
AcDbPoint
 10
170044.5357625036
 20
-65682.36198656392
 30
0.0
  0
ENDBLK
  5
8FE2
330
8FD5
100
AcDbEntity
  8
0
 48
5.0
100
AcDbBlockEnd
  0
BLOCK
  5
8FE4
330
8FE3
100
AcDbEntity
  8
0
 48
5.0
100
AcDbBlockBegin
  2
*D43
 70
     1
 10
0.0
 20
0.0
 30
0.0
  3
*D43
  1

  0
LINE
  5
8FE5
330
8FE3
100
AcDbEntity
  8
标注
 62
     0
 48
5.0
370
    -2
100
AcDbLine
 10
170021.4098245036
 20
-65686.68206820762
 30
0.0
 11
170021.4098245036
 21
-65682.85504700355
 31
0.0
  0
LINE
  5
8FE6
330
8FE3
100
AcDbEntity
  8
标注
 62
     0
 48
5.0
370
    -2
100
AcDbLine
 10
170043.1578125036
 20
-65686.68206820762
 30
0.0
 11
170043.1578125036
 21
-65682.85504700355
 31
0.0
  0
LINE
  5
8FE7
330
8FE3
100
AcDbEntity
  8
标注
 62
     0
 48
5.0
370
    -2
100
AcDbLine
 10
170009.4098245036
 20
-65680.85504700357
 30
0.0
 11
169997.4098245036
 21
-65680.85504700357
 31
0.0
  0
LINE
  5
8FE8
330
8FE3
100
AcDbEntity
  8
标注
 62
     0
 48
5.0
370
    -2
100
AcDbLine
 10
170055.1578125036
 20
-65680.85504700357
 30
0.0
 11
170067.1578125035
 21
-65680.85504700357
 31
0.0
  0
LINE
  5
8FE9
330
8FE3
100
AcDbEntity
  8
标注
 62
     0
 48
5.0
370
    -2
100
AcDbLine
 10
170021.4098245036
 20
-65680.85504700357
 30
0.0
 11
170043.1578125036
 21
-65680.85504700357
 31
0.0
  0
SOLID
  5
8FEA
330
8FE3
100
AcDbEntity
  8
标注
 62
     0
 48
5.0
100
AcDbTrace
 10
170009.4098245036
 20
-65678.85504700355
 30
0.0
 11
170009.4098245036
 21
-65682.85504700355
 31
0.0
 12
170021.4098245036
 22
-65680.85504700357
 32
0.0
 13
170021.4098245036
 23
-65680.85504700357
 33
0.0
  0
SOLID
  5
8FEB
330
8FE3
100
AcDbEntity
  8
标注
 62
     0
 48
5.0
100
AcDbTrace
 10
170055.1578125036
 20
-65678.85504700355
 30
0.0
 11
170055.1578125036
 21
-65682.85504700355
 31
0.0
 12
170043.1578125036
 22
-65680.85504700357
 32
0.0
 13
170043.1578125036
 23
-65680.85504700357
 33
0.0
  0
MTEXT
  5
8FEC
330
8FE3
100
AcDbEntity
  8
标注
 62
     0
 48
5.0
100
AcDbMText
 10
170032.2838185036
 20
-65680.85504700357
 30
0.0
 40
12.0
 41
0.0
 71
     5
 72
     1
  1
21,7
 73
     1
 44
1.0
1001
ACAD
1000
MTEXTBEGIN
1070
    73
1070
     1
1070
    44
1040
1.0
1070
    74
1070
     0
1000
MTEXTEND
  0
POINT
  5
8FED
330
8FE3
100
AcDbEntity
  8
DEFPOINTS
 62
     0
 48
5.0
100
AcDbPoint
 10
170021.4098245036
 20
-65677.68206820759
 30
0.0
  0
POINT
  5
8FEE
330
8FE3
100
AcDbEntity
  8
DEFPOINTS
 62
     0
 48
5.0
100
AcDbPoint
 10
170043.1578125036
 20
-65677.68206820759
 30
0.0
  0
POINT
  5
8FEF
330
8FE3
100
AcDbEntity
  8
DEFPOINTS
 62
     0
 48
5.0
100
AcDbPoint
 10
170043.1578125036
 20
-65680.85504700357
 30
0.0
  0
ENDBLK
  5
8FF0
330
8FE3
100
AcDbEntity
  8
0
 48
5.0
100
AcDbBlockEnd
  0
BLOCK
  5
8FF2
330
8FF1
100
AcDbEntity
  8
0
 48
5.0
100
AcDbBlockBegin
  2
*D44
 70
     1
 10
0.0
 20
0.0
 30
0.0
  3
*D44
  1

  0
LINE
  5
8FF3
330
8FF1
100
AcDbEntity
  8
标注
 62
     0
 48
5.0
370
    -2
100
AcDbLine
 10
170052.1578125036
 20
-65660.6821022076
 30
0.0
 11
170048.2743783604
 21
-65660.6821022076
 31
0.0
  0
LINE
  5
8FF4
330
8FF1
100
AcDbEntity
  8
标注
 62
     0
 48
5.0
370
    -2
100
AcDbLine
 10
170052.1578125036
 20
-65677.68206820759
 30
0.0
 11
170048.2743783604
 21
-65677.68206820759
 31
0.0
  0
LINE
  5
8FF5
330
8FF1
100
AcDbEntity
  8
标注
 62
     0
 48
5.0
370
    -2
100
AcDbLine
 10
170046.2743783604
 20
-65648.6821022076
 30
0.0
 11
170046.2743783604
 21
-65636.6821022076
 31
0.0
  0
LINE
  5
8FF6
330
8FF1
100
AcDbEntity
  8
标注
 62
     0
 48
5.0
370
    -2
100
AcDbLine
 10
170046.2743783604
 20
-65689.68206820762
 30
0.0
 11
170046.2743783604
 21
-65701.68206820762
 31
0.0
  0
LINE
  5
8FF7
330
8FF1
100
AcDbEntity
  8
标注
 62
     0
 48
5.0
370
    -2
100
AcDbLine
 10
170046.2743783604
 20
-65660.6821022076
 30
0.0
 11
170046.2743783604
 21
-65677.68206820759
 31
0.0
  0
SOLID
  5
8FF8
330
8FF1
100
AcDbEntity
  8
标注
 62
     0
 48
5.0
100
AcDbTrace
 10
170044.2743783603
 20
-65648.6821022076
 30
0.0
 11
170048.2743783604
 21
-65648.6821022076
 31
0.0
 12
170046.2743783604
 22
-65660.6821022076
 32
0.0
 13
170046.2743783604
 23
-65660.6821022076
 33
0.0
  0
SOLID
  5
8FF9
330
8FF1
100
AcDbEntity
  8
标注
 62
     0
 48
5.0
100
AcDbTrace
 10
170044.2743783603
 20
-65689.68206820762
 30
0.0
 11
170048.2743783604
 21
-65689.68206820762
 31
0.0
 12
170046.2743783604
 22
-65677.68206820759
 32
0.0
 13
170046.2743783604
 23
-65677.68206820759
 33
0.0
  0
MTEXT
  5
8FFA
330
8FF1
100
AcDbEntity
  8
标注
 62
     0
 48
5.0
100
AcDbMText
 10
170046.2743783604
 20
-65669.18208520758
 30
0.0
 40
12.0
 41
0.0
 71
     5
 72
     1
  1
17
 11
0.0000000000000001
 21
1.0
 31
0.0
 73
     1
 44
1.0
1001
ACAD
1000
MTEXTBEGIN
1070
    73
1070
     1
1070
    44
1040
1.0
1070
    74
1070
     0
1000
MTEXTEND
  0
POINT
  5
8FFB
330
8FF1
100
AcDbEntity
  8
DEFPOINTS
 62
     0
 48
5.0
100
AcDbPoint
 10
170043.1578125036
 20
-65660.6821022076
 30
0.0
  0
POINT
  5
8FFC
330
8FF1
100
AcDbEntity
  8
DEFPOINTS
 62
     0
 48
5.0
100
AcDbPoint
 10
170043.1578125036
 20
-65677.68206820759
 30
0.0
  0
POINT
  5
8FFD
330
8FF1
100
AcDbEntity
  8
DEFPOINTS
 62
     0
 48
5.0
100
AcDbPoint
 10
170046.2743783604
 20
-65677.68206820759
 30
0.0
  0
ENDBLK
  5
8FFE
330
8FF1
100
AcDbEntity
  8
0
 48
5.0
100
AcDbBlockEnd
  0
BLOCK
  5
9000
330
8FFF
100
AcDbEntity
  8
0
 48
5.0
100
AcDbBlockBegin
  2
*D45
 70
     1
 10
0.0
 20
0.0
 30
0.0
  3
*D45
  1

  0
LINE
  5
9001
330
8FFF
100
AcDbEntity
  8
标注
 62
     0
 48
5.0
370
    -2
100
AcDbLine
 10
170044.1420625036
 20
-65720.62926615659
 30
0.0
 11
170044.1420625036
 21
-65714.62535908652
 31
0.0
  0
LINE
  5
9002
330
8FFF
100
AcDbEntity
  8
标注
 62
     0
 48
5.0
370
    -2
100
AcDbLine
 10
170020.4255745036
 20
-65720.62926615659
 30
0.0
 11
170020.4255745036
 21
-65714.62535908652
 31
0.0
  0
LINE
  5
9003
330
8FFF
100
AcDbEntity
  8
标注
 62
     0
 48
5.0
370
    -2
100
AcDbLine
 10
170058.1420625036
 20
-65712.62535908654
 30
0.0
 11
170072.1420625036
 21
-65712.62535908654
 31
0.0
  0
LINE
  5
9004
330
8FFF
100
AcDbEntity
  8
标注
 62
     0
 48
5.0
370
    -2
100
AcDbLine
 10
170006.4255745036
 20
-65712.62535908654
 30
0.0
 11
169992.4255745036
 21
-65712.62535908654
 31
0.0
  0
LINE
  5
9005
330
8FFF
100
AcDbEntity
  8
标注
 62
     0
 48
5.0
370
    -2
100
AcDbLine
 10
170044.1420625036
 20
-65712.62535908654
 30
0.0
 11
170020.4255745036
 21
-65712.62535908654
 31
0.0
  0
SOLID
  5
9006
330
8FFF
100
AcDbEntity
  8
标注
 62
     0
 48
5.0
100
AcDbTrace
 10
170058.1420625036
 20
-65710.29202575321
 30
0.0
 11
170058.1420625036
 21
-65714.95869241987
 31
0.0
 12
170044.1420625036
 22
-65712.62535908654
 32
0.0
 13
170044.1420625036
 23
-65712.62535908654
 33
0.0
  0
SOLID
  5
9007
330
8FFF
100
AcDbEntity
  8
标注
 62
     0
 48
5.0
100
AcDbTrace
 10
170006.4255745036
 20
-65710.29202575321
 30
0.0
 11
170006.4255745036
 21
-65714.95869241987
 31
0.0
 12
170020.4255745036
 22
-65712.62535908654
 32
0.0
 13
170020.4255745036
 23
-65712.62535908654
 33
0.0
  0
MTEXT
  5
9008
330
8FFF
100
AcDbEntity
  8
标注
 62
     0
 48
5.0
100
AcDbMText
 10
169968.6033522813
 20
-65712.62535908654
 30
0.0
 40
14.0
 41
0.0
 71
     5
 72
     1
  1
23,7
 73
     1
 44
1.0
1001
ACAD
1000
MTEXTBEGIN
1070
    73
1070
     1
1070
    44
1040
1.0
1070
    74
1070
     0
1000
MTEXTEND
  0
POINT
  5
9009
330
8FFF
100
AcDbEntity
  8
DEFPOINTS
 62
     0
 48
5.0
100
AcDbPoint
 10
170044.1420625036
 20
-65710.6292661566
 30
0.0
  0
POINT
  5
900A
330
8FFF
100
AcDbEntity
  8
DEFPOINTS
 62
     0
 48
5.0
100
AcDbPoint
 10
170020.4255745036
 20
-65710.6292661566
 30
0.0
  0
POINT
  5
900B
330
8FFF
100
AcDbEntity
  8
DEFPOINTS
 62
     0
 48
5.0
100
AcDbPoint
 10
170020.4255745036
 20
-65712.62535908654
 30
0.0
  0
ENDBLK
  5
900C
330
8FFF
100
AcDbEntity
  8
0
 48
5.0
100
AcDbBlockEnd
  0
BLOCK
  5
900E
330
900D
100
AcDbEntity
  8
0
 48
5.0
100
AcDbBlockBegin
  2
*D46
 70
     1
 10
0.0
 20
0.0
 30
0.0
  3
*D46
  1

  0
LINE
  5
900F
330
900D
100
AcDbEntity
  8
标注
 62
     0
 48
5.0
370
    -2
100
AcDbLine
 10
170054.1420625036
 20
-65689.4167101566
 30
0.0
 11
170048.4140509826
 21
-65689.4167101566
 31
0.0
  0
LINE
  5
9010
330
900D
100
AcDbEntity
  8
标注
 62
     0
 48
5.0
370
    -2
100
AcDbLine
 10
170054.1420625036
 20
-65710.6292661566
 30
0.0
 11
170048.4140509826
 21
-65710.6292661566
 31
0.0
  0
LINE
  5
9011
330
900D
100
AcDbEntity
  8
标注
 62
     0
 48
5.0
370
    -2
100
AcDbLine
 10
170046.4140509826
 20
-65675.4167101566
 30
0.0
 11
170046.4140509826
 21
-65661.41671015659
 31
0.0
  0
LINE
  5
9012
330
900D
100
AcDbEntity
  8
标注
 62
     0
 48
5.0
370
    -2
100
AcDbLine
 10
170046.4140509826
 20
-65724.62926615659
 30
0.0
 11
170046.4140509826
 21
-65738.62926615659
 31
0.0
  0
LINE
  5
9013
330
900D
100
AcDbEntity
  8
标注
 62
     0
 48
5.0
370
    -2
100
AcDbLine
 10
170046.4140509826
 20
-65689.4167101566
 30
0.0
 11
170046.4140509826
 21
-65710.6292661566
 31
0.0
  0
SOLID
  5
9014
330
900D
100
AcDbEntity
  8
标注
 62
     0
 48
5.0
100
AcDbTrace
 10
170044.0807176492
 20
-65675.4167101566
 30
0.0
 11
170048.7473843159
 21
-65675.4167101566
 31
0.0
 12
170046.4140509826
 22
-65689.4167101566
 32
0.0
 13
170046.4140509826
 23
-65689.4167101566
 33
0.0
  0
SOLID
  5
9015
330
900D
100
AcDbEntity
  8
标注
 62
     0
 48
5.0
100
AcDbTrace
 10
170044.0807176492
 20
-65724.62926615659
 30
0.0
 11
170048.7473843159
 21
-65724.62926615659
 31
0.0
 12
170046.4140509826
 22
-65710.6292661566
 32
0.0
 13
170046.4140509826
 23
-65710.6292661566
 33
0.0
  0
MTEXT
  5
9016
330
900D
100
AcDbEntity
  8
标注
 62
     0
 48
5.0
100
AcDbMText
 10
170046.4140509826
 20
-65762.4125994899
 30
0.0
 40
14.0
 41
0.0
 71
     5
 72
     1
  1
21,2
 11
0.0000000000000001
 21
1.0
 31
0.0
 73
     1
 44
1.0
1001
ACAD
1000
MTEXTBEGIN
1070
    73
1070
     1
1070
    44
1040
1.0
1070
    74
1070
     0
1000
MTEXTEND
  0
POINT
  5
9017
330
900D
100
AcDbEntity
  8
DEFPOINTS
 62
     0
 48
5.0
100
AcDbPoint
 10
170044.1420625036
 20
-65689.4167101566
 30
0.0
  0
POINT
  5
9018
330
900D
100
AcDbEntity
  8
DEFPOINTS
 62
     0
 48
5.0
100
AcDbPoint
 10
170044.1420625036
 20
-65710.6292661566
 30
0.0
  0
POINT
  5
9019
330
900D
100
AcDbEntity
  8
DEFPOINTS
 62
     0
 48
5.0
100
AcDbPoint
 10
170046.4140509826
 20
-65710.6292661566
 30
0.0
  0
ENDBLK
  5
901A
330
900D
100
AcDbEntity
  8
0
 48
5.0
100
AcDbBlockEnd
  0
BLOCK
  5
9110
330
910F
100
AcDbEntity
  8
0
100
AcDbBlockBegin
  2
*D47
 70
     1
 10
0.0
 20
0.0
 30
0.0
  3
*D47
  1

  0
LINE
  5
9245
330
910F
100
AcDbEntity
  8
标注线
 48
5.0
370
    -2
100
AcDbLine
 10
1531.519368534846
 20
167.5671702252697
 30
0.0
 11
1531.983854043757
 21
167.5671702252697
 31
0.0
  0
LINE
  5
9246
330
910F
100
AcDbEntity
  8
标注线
 48
5.0
370
    -2
100
AcDbLine
 10
1530.089480093706
 20
162.0666974599265
 30
0.0
 11
1531.983854043757
 21
162.0666974599265
 31
0.0
  0
LINE
  5
9247
330
910F
100
AcDbEntity
  8
标注线
 48
5.0
370
    -2
100
AcDbLine
 10
1531.663854043757
 20
166.9171702252697
 30
0.0
 11
1531.663854043757
 21
166.3078172553891
 31
0.0
  0
LINE
  5
9248
330
910F
100
AcDbEntity
  8
标注线
 48
5.0
370
    -2
100
AcDbLine
 10
1531.663854043757
 20
162.7166974599265
 30
0.0
 11
1531.663854043757
 21
163.4461187560711
 31
0.0
  0
MTEXT
  5
9249
330
910F
100
AcDbEntity
  8
标注线
 48
5.0
100
AcDbMText
 10
1531.663854043757
 20
164.8769680057304
 30
0.0
 40
0.65
 41
0.0
 71
     5
 72
     1
  1
\A1;5 1/2"
 11
0.0000000000000001
 21
1.0
 31
0.0
 73
     1
 44
1.0
1001
ACAD
1000
MTEXTBEGIN
1070
    73
1070
     1
1070
    44
1040
1.0
1070
    74
1070
     0
1000
MTEXTEND
  0
SOLID
  5
924A
330
910F
100
AcDbEntity
  8
标注线
 48
5.0
100
AcDbTrace
 10
1531.555520710424
 20
166.9171702252697
 30
0.0
 11
1531.77218737709
 21
166.9171702252697
 31
0.0
 12
1531.663854043757
 22
167.5671702252697
 32
0.0
 13
1531.663854043757
 23
167.5671702252697
 33
0.0
  0
SOLID
  5
924B
330
910F
100
AcDbEntity
  8
标注线
 48
5.0
100
AcDbTrace
 10
1531.555520710424
 20
162.7166974599265
 30
0.0
 11
1531.77218737709
 21
162.7166974599265
 31
0.0
 12
1531.663854043757
 22
162.0666974599265
 32
0.0
 13
1531.663854043757
 23
162.0666974599265
 33
0.0
  0
POINT
  5
924C
330
910F
100
AcDbEntity
  8
DEFPOINTS
 62
     0
 48
5.0
100
AcDbPoint
 10
1530.639368534846
 20
167.5671702252697
 30
0.0
  0
POINT
  5
924D
330
910F
100
AcDbEntity
  8
DEFPOINTS
 62
     0
 48
5.0
100
AcDbPoint
 10
1529.209480093706
 20
162.0666974599265
 30
0.0
  0
POINT
  5
924E
330
910F
100
AcDbEntity
  8
DEFPOINTS
 62
     0
 48
5.0
100
AcDbPoint
 10
1531.663854043757
 20
162.0666974599265
 30
0.0
  0
ENDBLK
  5
9111
330
910F
100
AcDbEntity
  8
0
100
AcDbBlockEnd
  0
BLOCK
  5
911E
330
911D
100
AcDbEntity
  8
0
100
AcDbBlockBegin
  2
*D48
 70
     1
 10
0.0
 20
0.0
 30
0.0
  3
*D48
  1

  0
LINE
  5
91E5
330
911D
100
AcDbEntity
  8
标注线
 48
5.0
370
    -2
100
AcDbLine
 10
1531.005602896675
 20
148.1434764599074
 30
0.0
 11
1534.090585675892
 21
148.1434764599074
 31
0.0
  0
LINE
  5
91E6
330
911D
100
AcDbEntity
  8
标注线
 48
5.0
370
    -2
100
AcDbLine
 10
1531.060720896665
 20
126.1435204599078
 30
0.0
 11
1534.090585675892
 21
126.1435204599078
 31
0.0
  0
LINE
  5
91E7
330
911D
100
AcDbEntity
  8
标注线
 48
5.0
370
    -2
100
AcDbLine
 10
1533.770585675892
 20
147.4934764599074
 30
0.0
 11
1533.770585675892
 21
138.0750980506307
 31
0.0
  0
LINE
  5
91E8
330
911D
100
AcDbEntity
  8
标注线
 48
5.0
370
    -2
100
AcDbLine
 10
1533.770585675892
 20
126.7935204599078
 30
0.0
 11
1533.770585675892
 21
136.2118988691845
 31
0.0
  0
SOLID
  5
91E9
330
911D
100
AcDbEntity
  8
标注线
 48
5.0
100
AcDbTrace
 10
1533.662252342559
 20
147.4934764599074
 30
0.0
 11
1533.878919009224
 21
147.4934764599074
 31
0.0
 12
1533.770585675892
 22
148.1434764599074
 32
0.0
 13
1533.770585675892
 23
148.1434764599074
 33
0.0
  0
SOLID
  5
91EA
330
911D
100
AcDbEntity
  8
标注线
 48
5.0
100
AcDbTrace
 10
1533.662252342559
 20
126.7935204599078
 30
0.0
 11
1533.878919009224
 21
126.7935204599078
 31
0.0
 12
1533.770585675892
 22
126.1435204599078
 32
0.0
 13
1533.770585675892
 23
126.1435204599078
 33
0.0
  0
MTEXT
  5
91EB
330
911D
100
AcDbEntity
  8
标注线
 48
5.0
100
AcDbMText
 10
1533.770585675892
 20
137.1434984599078
 30
0.0
 40
0.65
 41
0.0
 71
     5
 72
     1
  1
\A1;22"
 11
0.0000000000000001
 21
1.0
 31
0.0
 73
     1
 44
1.0
1001
ACAD
1000
MTEXTBEGIN
1070
    73
1070
     1
1070
    44
1040
1.0
1070
    74
1070
     0
1000
MTEXTEND
  0
POINT
  5
91EC
330
911D
100
AcDbEntity
  8
DEFPOINTS
 62
     0
 48
5.0
100
AcDbPoint
 10
1530.125602896675
 20
148.1434764599074
 30
0.0
  0
POINT
  5
91ED
330
911D
100
AcDbEntity
  8
DEFPOINTS
 62
     0
 48
5.0
100
AcDbPoint
 10
1530.180720896665
 20
126.1435204599078
 30
0.0
  0
POINT
  5
91EE
330
911D
100
AcDbEntity
  8
DEFPOINTS
 62
     0
 48
5.0
100
AcDbPoint
 10
1533.770585675892
 20
126.1435204599078
 30
0.0
  0
ENDBLK
  5
911F
330
911D
100
AcDbEntity
  8
0
100
AcDbBlockEnd
  0
BLOCK
  5
912C
330
912B
100
AcDbEntity
  8
0
100
AcDbBlockBegin
  2
*D49
 70
     1
 10
0.0
 20
0.0
 30
0.0
  3
*D49
  1

  0
LINE
  5
91EF
330
912B
100
AcDbEntity
  8
标注线
 48
5.0
370
    -2
100
AcDbLine
 10
1505.873682896666
 20
125.4603704599008
 30
0.0
 11
1505.873682896666
 21
122.0755681035914
 31
0.0
  0
LINE
  5
91F0
330
912B
100
AcDbEntity
  8
标注线
 48
5.0
370
    -2
100
AcDbLine
 10
1530.377570896672
 20
125.4603704599008
 30
0.0
 11
1530.377570896672
 21
122.0755681035914
 31
0.0
  0
LINE
  5
91F1
330
912B
100
AcDbEntity
  8
标注线
 48
5.0
370
    -2
100
AcDbLine
 10
1506.523682896666
 20
122.3955681035914
 30
0.0
 11
1516.436728533777
 21
122.3955681035914
 31
0.0
  0
LINE
  5
91F2
330
912B
100
AcDbEntity
  8
标注线
 48
5.0
370
    -2
100
AcDbLine
 10
1529.727570896672
 20
122.3955681035914
 30
0.0
 11
1519.814525259561
 21
122.3955681035914
 31
0.0
  0
MTEXT
  5
91F3
330
912B
100
AcDbEntity
  8
标注线
 48
5.0
100
AcDbMText
 10
1518.125626896669
 20
122.3955681035914
 30
0.0
 40
0.65
 41
0.0
 71
     5
 72
     1
  1
\A1;24 1/2"
 73
     1
 44
1.0
1001
ACAD
1000
MTEXTBEGIN
1070
    73
1070
     1
1070
    44
1040
1.0
1070
    74
1070
     0
1000
MTEXTEND
  0
SOLID
  5
91F4
330
912B
100
AcDbEntity
  8
标注线
 48
5.0
100
AcDbTrace
 10
1506.523682896666
 20
122.5039014369247
 30
0.0
 11
1506.523682896666
 21
122.2872347702581
 31
0.0
 12
1505.873682896666
 22
122.3955681035914
 32
0.0
 13
1505.873682896666
 23
122.3955681035914
 33
0.0
  0
SOLID
  5
91F5
330
912B
100
AcDbEntity
  8
标注线
 48
5.0
100
AcDbTrace
 10
1529.727570896672
 20
122.5039014369247
 30
0.0
 11
1529.727570896672
 21
122.2872347702581
 31
0.0
 12
1530.377570896672
 22
122.3955681035914
 32
0.0
 13
1530.377570896672
 23
122.3955681035914
 33
0.0
  0
POINT
  5
91F6
330
912B
100
AcDbEntity
  8
DEFPOINTS
 62
     0
 48
5.0
100
AcDbPoint
 10
1505.873682896666
 20
126.3403704599008
 30
0.0
  0
POINT
  5
91F7
330
912B
100
AcDbEntity
  8
DEFPOINTS
 62
     0
 48
5.0
100
AcDbPoint
 10
1530.377570896672
 20
126.3403704599008
 30
0.0
  0
POINT
  5
91F8
330
912B
100
AcDbEntity
  8
DEFPOINTS
 62
     0
 48
5.0
100
AcDbPoint
 10
1530.377570896672
 20
122.3955681035914
 30
0.0
  0
ENDBLK
  5
912D
330
912B
100
AcDbEntity
  8
0
100
AcDbBlockEnd
  0
BLOCK
  5
9145
330
9144
100
AcDbEntity
  8
0
100
AcDbBlockBegin
  2
*D50
 70
     1
 10
0.0
 20
0.0
 30
0.0
  3
*D50
  1

  0
LINE
  5
91BA
330
9144
100
AcDbEntity
  8
标注线
 48
5.0
370
    -2
100
AcDbLine
 10
1507.25163289666
 20
126.515486459904
 30
0.0
 11
1507.25163289666
 21
123.9025076639555
 31
0.0
  0
LINE
  5
91BB
330
9144
100
AcDbEntity
  8
标注线
 48
5.0
370
    -2
100
AcDbLine
 10
1528.999620896648
 20
126.515486459904
 30
0.0
 11
1528.999620896648
 21
123.9025076639555
 31
0.0
  0
LINE
  5
91BC
330
9144
100
AcDbEntity
  8
标注线
 48
5.0
370
    -2
100
AcDbLine
 10
1507.90163289666
 20
124.2225076639555
 30
0.0
 11
1516.436728533762
 21
124.2225076639555
 31
0.0
  0
LINE
  5
91BD
330
9144
100
AcDbEntity
  8
标注线
 48
5.0
370
    -2
100
AcDbLine
 10
1528.349620896648
 20
124.2225076639555
 30
0.0
 11
1519.814525259547
 21
124.2225076639555
 31
0.0
  0
MTEXT
  5
91BE
330
9144
100
AcDbEntity
  8
标注线
 48
5.0
100
AcDbMText
 10
1518.125626896654
 20
124.2225076639555
 30
0.0
 40
0.65
 41
0.0
 71
     5
 72
     1
  1
\A1;21 3/4"
 73
     1
 44
1.0
1001
ACAD
1000
MTEXTBEGIN
1070
    73
1070
     1
1070
    44
1040
1.0
1070
    74
1070
     0
1000
MTEXTEND
  0
SOLID
  5
91BF
330
9144
100
AcDbEntity
  8
标注线
 48
5.0
100
AcDbTrace
 10
1507.90163289666
 20
124.3308409972888
 30
0.0
 11
1507.90163289666
 21
124.1141743306222
 31
0.0
 12
1507.25163289666
 22
124.2225076639555
 32
0.0
 13
1507.25163289666
 23
124.2225076639555
 33
0.0
  0
SOLID
  5
91C0
330
9144
100
AcDbEntity
  8
标注线
 48
5.0
100
AcDbTrace
 10
1528.349620896648
 20
124.3308409972888
 30
0.0
 11
1528.349620896648
 21
124.1141743306222
 31
0.0
 12
1528.999620896648
 22
124.2225076639555
 32
0.0
 13
1528.999620896648
 23
124.2225076639555
 33
0.0
  0
POINT
  5
91C1
330
9144
100
AcDbEntity
  8
DEFPOINTS
 62
     0
 48
5.0
100
AcDbPoint
 10
1507.25163289666
 20
127.3954864599039
 30
0.0
  0
POINT
  5
91C2
330
9144
100
AcDbEntity
  8
DEFPOINTS
 62
     0
 48
5.0
100
AcDbPoint
 10
1528.999620896648
 20
127.3954864599039
 30
0.0
  0
POINT
  5
91C3
330
9144
100
AcDbEntity
  8
DEFPOINTS
 62
     0
 48
5.0
100
AcDbPoint
 10
1528.999620896648
 20
124.2225076639555
 30
0.0
  0
ENDBLK
  5
9146
330
9144
100
AcDbEntity
  8
0
100
AcDbBlockEnd
  0
BLOCK
  5
9153
330
9152
100
AcDbEntity
  8
0
100
AcDbBlockBegin
  2
*D51
 70
     1
 10
0.0
 20
0.0
 30
0.0
  3
*D51
  1

  0
LINE
  5
91B0
330
9152
100
AcDbEntity
  8
标注线
 48
5.0
370
    -2
100
AcDbLine
 10
1529.879620896678
 20
144.395452459907
 30
0.0
 11
1532.43618675344
 21
144.395452459907
 31
0.0
  0
LINE
  5
91B1
330
9152
100
AcDbEntity
  8
标注线
 48
5.0
370
    -2
100
AcDbLine
 10
1529.879620896649
 20
127.3954864599039
 30
0.0
 11
1532.43618675344
 21
127.3954864599039
 31
0.0
  0
LINE
  5
91B2
330
9152
100
AcDbEntity
  8
标注线
 48
5.0
370
    -2
100
AcDbLine
 10
1532.11618675344
 20
143.745452459907
 30
0.0
 11
1532.11618675344
 21
136.7909333071087
 31
0.0
  0
LINE
  5
91B3
330
9152
100
AcDbEntity
  8
标注线
 48
5.0
370
    -2
100
AcDbLine
 10
1532.11618675344
 20
128.0454864599039
 30
0.0
 11
1532.11618675344
 21
135.0000056127022
 31
0.0
  0
MTEXT
  5
91B4
330
9152
100
AcDbEntity
  8
标注线
 48
5.0
100
AcDbMText
 10
1532.11618675344
 20
135.8954694599057
 30
0.0
 40
0.65
 41
0.0
 71
     5
 72
     1
  1
\A1;17"
 11
0.0000000000000001
 21
1.0
 31
0.0
 73
     1
 44
1.0
1001
ACAD
1000
MTEXTBEGIN
1070
    73
1070
     1
1070
    44
1040
1.0
1070
    74
1070
     0
1000
MTEXTEND
  0
SOLID
  5
91B5
330
9152
100
AcDbEntity
  8
标注线
 48
5.0
100
AcDbTrace
 10
1532.007853420107
 20
143.745452459907
 30
0.0
 11
1532.224520086773
 21
143.745452459907
 31
0.0
 12
1532.11618675344
 22
144.395452459907
 32
0.0
 13
1532.11618675344
 23
144.395452459907
 33
0.0
  0
SOLID
  5
91B6
330
9152
100
AcDbEntity
  8
标注线
 48
5.0
100
AcDbTrace
 10
1532.007853420107
 20
128.0454864599039
 30
0.0
 11
1532.224520086773
 21
128.0454864599039
 31
0.0
 12
1532.11618675344
 22
127.3954864599039
 32
0.0
 13
1532.11618675344
 23
127.3954864599039
 33
0.0
  0
POINT
  5
91B7
330
9152
100
AcDbEntity
  8
DEFPOINTS
 62
     0
 48
5.0
100
AcDbPoint
 10
1528.999620896678
 20
144.395452459907
 30
0.0
  0
POINT
  5
91B8
330
9152
100
AcDbEntity
  8
DEFPOINTS
 62
     0
 48
5.0
100
AcDbPoint
 10
1528.999620896648
 20
127.3954864599039
 30
0.0
  0
POINT
  5
91B9
330
9152
100
AcDbEntity
  8
DEFPOINTS
 62
     0
 48
5.0
100
AcDbPoint
 10
1532.11618675344
 20
127.3954864599039
 30
0.0
  0
ENDBLK
  5
9154
330
9152
100
AcDbEntity
  8
0
100
AcDbBlockEnd
  0
BLOCK
  5
916C
330
916B
100
AcDbEntity
  8
0
100
AcDbBlockBegin
  2
*D52
 70
     1
 10
0.0
 20
0.0
 30
0.0
  3
*D52
  1

  0
LINE
  5
919C
330
916B
100
AcDbEntity
  8
标注线
 48
5.0
370
    -2
100
AcDbLine
 10
1529.983870896657
 20
93.56828851091405
 30
0.0
 11
1529.983870896657
 21
92.1321955809727
 31
0.0
  0
LINE
  5
919D
330
916B
100
AcDbEntity
  8
标注线
 48
5.0
370
    -2
100
AcDbLine
 10
1506.267382896651
 20
93.56828851091405
 30
0.0
 11
1506.267382896651
 21
92.1321955809727
 31
0.0
  0
LINE
  5
919E
330
916B
100
AcDbEntity
  8
标注线
 48
5.0
370
    -2
100
AcDbLine
 10
1529.333870896657
 20
92.45219558097266
 30
0.0
 11
1519.814525259547
 21
92.45219558097266
 31
0.0
  0
LINE
  5
919F
330
916B
100
AcDbEntity
  8
标注线
 48
5.0
370
    -2
100
AcDbLine
 10
1506.917382896651
 20
92.45219558097266
 30
0.0
 11
1516.436728533762
 21
92.45219558097266
 31
0.0
  0
SOLID
  5
91A0
330
916B
100
AcDbEntity
  8
标注线
 48
5.0
100
AcDbTrace
 10
1529.333870896657
 20
92.56052891430599
 30
0.0
 11
1529.333870896657
 21
92.34386224763936
 31
0.0
 12
1529.983870896657
 22
92.45219558097266
 32
0.0
 13
1529.983870896657
 23
92.45219558097266
 33
0.0
  0
SOLID
  5
91A1
330
916B
100
AcDbEntity
  8
标注线
 48
5.0
100
AcDbTrace
 10
1506.917382896651
 20
92.56052891430599
 30
0.0
 11
1506.917382896651
 21
92.34386224763936
 31
0.0
 12
1506.267382896651
 22
92.45219558097266
 32
0.0
 13
1506.267382896651
 23
92.45219558097266
 33
0.0
  0
MTEXT
  5
91A2
330
916B
100
AcDbEntity
  8
标注线
 48
5.0
100
AcDbMText
 10
1518.125626896654
 20
92.45219558097266
 30
0.0
 40
0.65
 41
0.0
 71
     5
 72
     1
  1
\A1;23 3/4"
 73
     1
 44
1.0
1001
ACAD
1000
MTEXTBEGIN
1070
    73
1070
     1
1070
    44
1040
1.0
1070
    74
1070
     0
1000
MTEXTEND
  0
POINT
  5
91A3
330
916B
100
AcDbEntity
  8
DEFPOINTS
 62
     0
 48
5.0
100
AcDbPoint
 10
1529.983870896657
 20
94.44828851091404
 30
0.0
  0
POINT
  5
91A4
330
916B
100
AcDbEntity
  8
DEFPOINTS
 62
     0
 48
5.0
100
AcDbPoint
 10
1506.267382896651
 20
94.44828851091404
 30
0.0
  0
POINT
  5
91A5
330
916B
100
AcDbEntity
  8
DEFPOINTS
 62
     0
 48
5.0
100
AcDbPoint
 10
1506.267382896651
 20
92.45219558097266
 30
0.0
  0
ENDBLK
  5
916D
330
916B
100
AcDbEntity
  8
0
100
AcDbBlockEnd
  0
BLOCK
  5
917A
330
9179
100
AcDbEntity
  8
0
100
AcDbBlockBegin
  2
*D53
 70
     1
 10
0.0
 20
0.0
 30
0.0
  3
*D53
  1

  0
LINE
  5
9192
330
9179
100
AcDbEntity
  8
标注线
 48
5.0
370
    -2
100
AcDbLine
 10
1530.863870896657
 20
115.6608445109126
 30
0.0
 11
1532.575859375641
 21
115.6608445109126
 31
0.0
  0
LINE
  5
9193
330
9179
100
AcDbEntity
  8
标注线
 48
5.0
370
    -2
100
AcDbLine
 10
1530.863870896657
 20
94.44828851091404
 30
0.0
 11
1532.575859375641
 21
94.44828851091404
 31
0.0
  0
LINE
  5
9194
330
9179
100
AcDbEntity
  8
标注线
 48
5.0
370
    -2
100
AcDbLine
 10
1532.255859375641
 20
115.0108445109126
 30
0.0
 11
1532.255859375641
 21
106.7434648738055
 31
0.0
  0
LINE
  5
9195
330
9179
100
AcDbEntity
  8
标注线
 48
5.0
370
    -2
100
AcDbLine
 10
1532.255859375641
 20
95.09828851091404
 30
0.0
 11
1532.255859375641
 21
103.3656681480211
 31
0.0
  0
SOLID
  5
9196
330
9179
100
AcDbEntity
  8
标注线
 48
5.0
100
AcDbTrace
 10
1532.147526042308
 20
115.0108445109126
 30
0.0
 11
1532.364192708974
 21
115.0108445109126
 31
0.0
 12
1532.255859375641
 22
115.6608445109126
 32
0.0
 13
1532.255859375641
 23
115.6608445109126
 33
0.0
  0
SOLID
  5
9197
330
9179
100
AcDbEntity
  8
标注线
 48
5.0
100
AcDbTrace
 10
1532.147526042308
 20
95.09828851091404
 30
0.0
 11
1532.364192708974
 21
95.09828851091404
 31
0.0
 12
1532.255859375641
 22
94.44828851091404
 32
0.0
 13
1532.255859375641
 23
94.44828851091404
 33
0.0
  0
MTEXT
  5
9198
330
9179
100
AcDbEntity
  8
标注线
 48
5.0
100
AcDbMText
 10
1532.255859375641
 20
105.0545665109136
 30
0.0
 40
0.65
 41
0.0
 71
     5
 72
     1
  1
\A1;21 1/4"
 11
0.0000000000000001
 21
1.0
 31
0.0
 73
     1
 44
1.0
1001
ACAD
1000
MTEXTBEGIN
1070
    73
1070
     1
1070
    44
1040
1.0
1070
    74
1070
     0
1000
MTEXTEND
  0
POINT
  5
9199
330
9179
100
AcDbEntity
  8
DEFPOINTS
 62
     0
 48
5.0
100
AcDbPoint
 10
1529.983870896657
 20
115.6608445109126
 30
0.0
  0
POINT
  5
919A
330
9179
100
AcDbEntity
  8
DEFPOINTS
 62
     0
 48
5.0
100
AcDbPoint
 10
1529.983870896657
 20
94.44828851091404
 30
0.0
  0
POINT
  5
919B
330
9179
100
AcDbEntity
  8
DEFPOINTS
 62
     0
 48
5.0
100
AcDbPoint
 10
1532.255859375641
 20
94.44828851091404
 30
0.0
  0
ENDBLK
  5
917B
330
9179
100
AcDbEntity
  8
0
100
AcDbBlockEnd
  0
BLOCK
  5
92AE
330
92AD
100
AcDbEntity
  8
0
 48
5.0
100
AcDbBlockBegin
  2
*D54
 70
     1
 10
0.0
 20
0.0
 30
0.0
  3
*D54
  1

  0
LINE
  5
92AF
330
92AD
100
AcDbEntity
  8
标注
 62
     0
 48
5.0
370
    -2
100
AcDbLine
 10
100680.6045884919
 20
-46694.23667812441
 30
0.0
 11
100677.6936389136
 21
-46694.23667812441
 31
0.0
  0
LINE
  5
92B0
330
92AD
100
AcDbEntity
  8
标注
 62
     0
 48
5.0
370
    -2
100
AcDbLine
 10
100680.6045884919
 20
-46716.23663412441
 30
0.0
 11
100677.6936389136
 21
-46716.23663412441
 31
0.0
  0
LINE
  5
92B1
330
92AD
100
AcDbEntity
  8
标注
 62
     0
 48
5.0
370
    -2
100
AcDbLine
 10
100675.6936389136
 20
-46680.23667812443
 30
0.0
 11
100675.6936389136
 21
-46666.23667812443
 31
0.0
  0
LINE
  5
92B2
330
92AD
100
AcDbEntity
  8
标注
 62
     0
 48
5.0
370
    -2
100
AcDbLine
 10
100675.6936389136
 20
-46730.23663412441
 30
0.0
 11
100675.6936389136
 21
-46744.23663412444
 31
0.0
  0
LINE
  5
92B3
330
92AD
100
AcDbEntity
  8
标注
 62
     0
 48
5.0
370
    -2
100
AcDbLine
 10
100675.6936389136
 20
-46694.23667812441
 30
0.0
 11
100675.6936389136
 21
-46716.23663412441
 31
0.0
  0
SOLID
  5
92B4
330
92AD
100
AcDbEntity
  8
标注
 62
     0
 48
5.0
100
AcDbTrace
 10
100673.3603055803
 20
-46680.23667812443
 30
0.0
 11
100678.026972247
 21
-46680.23667812443
 31
0.0
 12
100675.6936389136
 22
-46694.23667812441
 32
0.0
 13
100675.6936389136
 23
-46694.23667812441
 33
0.0
  0
SOLID
  5
92B5
330
92AD
100
AcDbEntity
  8
标注
 62
     0
 48
5.0
100
AcDbTrace
 10
100673.3603055803
 20
-46730.23663412441
 30
0.0
 11
100678.026972247
 21
-46730.23663412441
 31
0.0
 12
100675.6936389136
 22
-46716.23663412441
 32
0.0
 13
100675.6936389136
 23
-46716.23663412441
 33
0.0
  0
MTEXT
  5
92B6
330
92AD
100
AcDbEntity
  8
标注
 62
     0
 48
5.0
100
AcDbMText
 10
100675.6936389137
 20
-46705.23665612441
 30
0.0
 40
14.0
 41
0.0
 71
     5
 72
     1
  1
22
 11
0.0000000000000001
 21
1.0
 31
0.0
 73
     1
 44
1.0
1001
ACAD
1000
MTEXTBEGIN
1070
    73
1070
     1
1070
    44
1040
1.0
1070
    74
1070
     0
1000
MTEXTEND
  0
POINT
  5
92B7
330
92AD
100
AcDbEntity
  8
DEFPOINTS
 62
     0
 48
5.0
100
AcDbPoint
 10
100670.6045884919
 20
-46694.23667812441
 30
0.0
  0
POINT
  5
92B8
330
92AD
100
AcDbEntity
  8
DEFPOINTS
 62
     0
 48
5.0
100
AcDbPoint
 10
100670.6045884919
 20
-46716.23663412441
 30
0.0
  0
POINT
  5
92B9
330
92AD
100
AcDbEntity
  8
DEFPOINTS
 62
     0
 48
5.0
100
AcDbPoint
 10
100675.6936389136
 20
-46716.23663412441
 30
0.0
  0
ENDBLK
  5
92BA
330
92AD
100
AcDbEntity
  8
0
 48
5.0
100
AcDbBlockEnd
  0
BLOCK
  5
92BC
330
92BB
100
AcDbEntity
  8
0
 48
5.0
100
AcDbBlockBegin
  2
*D55
 70
     1
 10
0.0
 20
0.0
 30
0.0
  3
*D55
  1

  0
LINE
  5
92BD
330
92BB
100
AcDbEntity
  8
标注
 62
     0
 48
5.0
370
    -2
100
AcDbLine
 10
100679.2856934919
 20
-46697.98470212443
 30
0.0
 11
100675.4288740892
 21
-46697.98470212443
 31
0.0
  0
LINE
  5
92BE
330
92BB
100
AcDbEntity
  8
标注
 62
     0
 48
5.0
370
    -2
100
AcDbLine
 10
100679.2856934919
 20
-46714.98466812443
 30
0.0
 11
100675.4288740892
 21
-46714.98466812443
 31
0.0
  0
LINE
  5
92BF
330
92BB
100
AcDbEntity
  8
标注
 62
     0
 48
5.0
370
    -2
100
AcDbLine
 10
100673.4288740892
 20
-46683.98470212443
 30
0.0
 11
100673.4288740892
 21
-46669.98470212441
 31
0.0
  0
LINE
  5
92C0
330
92BB
100
AcDbEntity
  8
标注
 62
     0
 48
5.0
370
    -2
100
AcDbLine
 10
100673.4288740892
 20
-46728.98466812442
 30
0.0
 11
100673.4288740892
 21
-46742.98466812443
 31
0.0
  0
LINE
  5
92C1
330
92BB
100
AcDbEntity
  8
标注
 62
     0
 48
5.0
370
    -2
100
AcDbLine
 10
100673.4288740892
 20
-46697.98470212443
 30
0.0
 11
100673.4288740892
 21
-46714.98466812443
 31
0.0
  0
SOLID
  5
92C2
330
92BB
100
AcDbEntity
  8
标注
 62
     0
 48
5.0
100
AcDbTrace
 10
100671.0955407558
 20
-46683.98470212443
 30
0.0
 11
100675.7622074225
 21
-46683.98470212443
 31
0.0
 12
100673.4288740892
 22
-46697.98470212443
 32
0.0
 13
100673.4288740892
 23
-46697.98470212443
 33
0.0
  0
SOLID
  5
92C3
330
92BB
100
AcDbEntity
  8
标注
 62
     0
 48
5.0
100
AcDbTrace
 10
100671.0955407558
 20
-46728.98466812442
 30
0.0
 11
100675.7622074225
 21
-46728.98466812442
 31
0.0
 12
100673.4288740892
 22
-46714.98466812443
 32
0.0
 13
100673.4288740892
 23
-46714.98466812443
 33
0.0
  0
MTEXT
  5
92C4
330
92BB
100
AcDbEntity
  8
标注
 62
     0
 48
5.0
100
AcDbMText
 10
100673.4288740892
 20
-46706.48468512442
 30
0.0
 40
14.0
 41
0.0
 71
     5
 72
     1
  1
17
 11
0.0000000000000001
 21
1.0
 31
0.0
 73
     1
 44
1.0
1001
ACAD
1000
MTEXTBEGIN
1070
    73
1070
     1
1070
    44
1040
1.0
1070
    74
1070
     0
1000
MTEXTEND
  0
POINT
  5
92C5
330
92BB
100
AcDbEntity
  8
DEFPOINTS
 62
     0
 48
5.0
100
AcDbPoint
 10
100669.2856934919
 20
-46697.98470212443
 30
0.0
  0
POINT
  5
92C6
330
92BB
100
AcDbEntity
  8
DEFPOINTS
 62
     0
 48
5.0
100
AcDbPoint
 10
100669.2856934919
 20
-46714.98466812443
 30
0.0
  0
POINT
  5
92C7
330
92BB
100
AcDbEntity
  8
DEFPOINTS
 62
     0
 48
5.0
100
AcDbPoint
 10
100673.4288740892
 20
-46714.98466812443
 30
0.0
  0
ENDBLK
  5
92C8
330
92BB
100
AcDbEntity
  8
0
 48
5.0
100
AcDbBlockEnd
  0
BLOCK
  5
92CA
330
92C9
100
AcDbEntity
  8
0
 48
5.0
100
AcDbBlockBegin
  2
*D56
 70
     1
 10
0.0
 20
0.0
 30
0.0
  3
*D56
  1

  0
LINE
  5
92CB
330
92C9
100
AcDbEntity
  8
标注
 62
     0
 48
5.0
370
    -2
100
AcDbLine
 10
100669.2856934919
 20
-46724.39411812444
 30
0.0
 11
100669.2856934919
 21
-46722.19920902058
 31
0.0
  0
LINE
  5
92CC
330
92C9
100
AcDbEntity
  8
标注
 62
     0
 48
5.0
370
    -2
100
AcDbLine
 10
100639.5377214919
 20
-46724.98466812442
 30
0.0
 11
100639.5377214919
 21
-46722.19920902058
 31
0.0
  0
LINE
  5
92CD
330
92C9
100
AcDbEntity
  8
标注
 62
     0
 48
5.0
370
    -2
100
AcDbLine
 10
100683.2856934919
 20
-46720.1992090206
 30
0.0
 11
100697.2856934919
 21
-46720.1992090206
 31
0.0
  0
LINE
  5
92CE
330
92C9
100
AcDbEntity
  8
标注
 62
     0
 48
5.0
370
    -2
100
AcDbLine
 10
100625.5377214919
 20
-46720.1992090206
 30
0.0
 11
100611.5377214919
 21
-46720.1992090206
 31
0.0
  0
LINE
  5
92CF
330
92C9
100
AcDbEntity
  8
标注
 62
     0
 48
5.0
370
    -2
100
AcDbLine
 10
100669.2856934919
 20
-46720.1992090206
 30
0.0
 11
100639.5377214919
 21
-46720.1992090206
 31
0.0
  0
SOLID
  5
92D0
330
92C9
100
AcDbEntity
  8
标注
 62
     0
 48
5.0
100
AcDbTrace
 10
100683.2856934919
 20
-46717.86587568727
 30
0.0
 11
100683.2856934919
 21
-46722.53254235393
 31
0.0
 12
100669.2856934919
 22
-46720.1992090206
 32
0.0
 13
100669.2856934919
 23
-46720.1992090206
 33
0.0
  0
SOLID
  5
92D1
330
92C9
100
AcDbEntity
  8
标注
 62
     0
 48
5.0
100
AcDbTrace
 10
100625.5377214919
 20
-46717.86587568727
 30
0.0
 11
100625.5377214919
 21
-46722.53254235393
 31
0.0
 12
100639.5377214919
 22
-46720.1992090206
 32
0.0
 13
100639.5377214919
 23
-46720.1992090206
 33
0.0
  0
MTEXT
  5
92D2
330
92C9
100
AcDbEntity
  8
标注
 62
     0
 48
5.0
100
AcDbMText
 10
100654.4117074919
 20
-46720.1992090206
 30
0.0
 40
14.0
 41
0.0
 71
     5
 72
     1
  1
29,7
 73
     1
 44
1.0
1001
ACAD
1000
MTEXTBEGIN
1070
    73
1070
     1
1070
    44
1040
1.0
1070
    74
1070
     0
1000
MTEXTEND
  0
POINT
  5
92D3
330
92C9
100
AcDbEntity
  8
DEFPOINTS
 62
     0
 48
5.0
100
AcDbPoint
 10
100669.2856934919
 20
-46714.39411812444
 30
0.0
  0
POINT
  5
92D4
330
92C9
100
AcDbEntity
  8
DEFPOINTS
 62
     0
 48
5.0
100
AcDbPoint
 10
100639.5377214919
 20
-46714.98466812443
 30
0.0
  0
POINT
  5
92D5
330
92C9
100
AcDbEntity
  8
DEFPOINTS
 62
     0
 48
5.0
100
AcDbPoint
 10
100639.5377214919
 20
-46720.1992090206
 30
0.0
  0
ENDBLK
  5
92D6
330
92C9
100
AcDbEntity
  8
0
 48
5.0
100
AcDbBlockEnd
  0
BLOCK
  5
92D8
330
92D7
100
AcDbEntity
  8
0
 48
5.0
100
AcDbBlockBegin
  2
*D57
 70
     1
 10
0.0
 20
0.0
 30
0.0
  3
*D57
  1

  0
LINE
  5
92D9
330
92D7
100
AcDbEntity
  8
标注
 62
     0
 48
5.0
370
    -2
100
AcDbLine
 10
100680.6636434919
 20
-46674.81298435904
 30
0.0
 11
100675.7996921746
 21
-46674.81298435904
 31
0.0
  0
LINE
  5
92DA
330
92D7
100
AcDbEntity
  8
标注
 62
     0
 48
5.0
370
    -2
100
AcDbLine
 10
100679.3554029252
 20
-46683.8134571244
 30
0.0
 11
100675.7996921746
 21
-46683.8134571244
 31
0.0
  0
LINE
  5
92DB
330
92D7
100
AcDbEntity
  8
标注
 62
     0
 48
5.0
370
    -2
100
AcDbLine
 10
100673.7996921746
 20
-46660.81298435906
 30
0.0
 11
100673.7996921746
 21
-46646.81298435906
 31
0.0
  0
LINE
  5
92DC
330
92D7
100
AcDbEntity
  8
标注
 62
     0
 48
5.0
370
    -2
100
AcDbLine
 10
100673.7996921746
 20
-46697.8134571244
 30
0.0
 11
100673.7996921746
 21
-46711.8134571244
 31
0.0
  0
LINE
  5
92DD
330
92D7
100
AcDbEntity
  8
标注
 62
     0
 48
5.0
370
    -2
100
AcDbLine
 10
100673.7996921746
 20
-46674.81298435904
 30
0.0
 11
100673.7996921746
 21
-46683.8134571244
 31
0.0
  0
SOLID
  5
92DE
330
92D7
100
AcDbEntity
  8
标注
 62
     0
 48
5.0
100
AcDbTrace
 10
100671.4663588413
 20
-46660.81298435906
 30
0.0
 11
100676.1330255079
 21
-46660.81298435906
 31
0.0
 12
100673.7996921746
 22
-46674.81298435904
 32
0.0
 13
100673.7996921746
 23
-46674.81298435904
 33
0.0
  0
SOLID
  5
92DF
330
92D7
100
AcDbEntity
  8
标注
 62
     0
 48
5.0
100
AcDbTrace
 10
100671.4663588413
 20
-46697.8134571244
 30
0.0
 11
100676.1330255079
 21
-46697.8134571244
 31
0.0
 12
100673.7996921746
 22
-46683.8134571244
 32
0.0
 13
100673.7996921746
 23
-46683.8134571244
 33
0.0
  0
MTEXT
  5
92E0
330
92D7
100
AcDbEntity
  8
标注
 62
     0
 48
5.0
100
AcDbMText
 10
100673.7996921746
 20
-46679.31322074172
 30
0.0
 40
14.0
 41
0.0
 71
     5
 72
     1
  1
9
 11
0.0000000000000001
 21
1.0
 31
0.0
 73
     1
 44
1.0
1001
ACAD
1000
MTEXTBEGIN
1070
    73
1070
     1
1070
    44
1040
1.0
1070
    74
1070
     0
1000
MTEXTEND
  0
POINT
  5
92E1
330
92D7
100
AcDbEntity
  8
DEFPOINTS
 62
     0
 48
5.0
100
AcDbPoint
 10
100670.6636434919
 20
-46674.81298435904
 30
0.0
  0
POINT
  5
92E2
330
92D7
100
AcDbEntity
  8
DEFPOINTS
 62
     0
 48
5.0
100
AcDbPoint
 10
100669.3554029252
 20
-46683.8134571244
 30
0.0
  0
POINT
  5
92E3
330
92D7
100
AcDbEntity
  8
DEFPOINTS
 62
     0
 48
5.0
100
AcDbPoint
 10
100673.7996921746
 20
-46683.8134571244
 30
0.0
  0
ENDBLK
  5
92E4
330
92D7
100
AcDbEntity
  8
0
 48
5.0
100
AcDbBlockEnd
  0
BLOCK
  5
92E6
330
92E5
100
AcDbEntity
  8
0
 48
5.0
100
AcDbBlockBegin
  2
*D58
 70
     1
 10
0.0
 20
0.0
 30
0.0
  3
*D58
  1

  0
LINE
  5
92E7
330
92E5
100
AcDbEntity
  8
标注
 62
     0
 48
5.0
370
    -2
100
AcDbLine
 10
100680.2108884919
 20
-46729.98952306985
 30
0.0
 11
100674.9916337027
 21
-46729.98952306985
 31
0.0
  0
LINE
  5
92E8
330
92E5
100
AcDbEntity
  8
标注
 62
     0
 48
5.0
370
    -2
100
AcDbLine
 10
100680.2699434919
 20
-46751.20207906986
 30
0.0
 11
100674.9916337027
 21
-46751.20207906986
 31
0.0
  0
LINE
  5
92E9
330
92E5
100
AcDbEntity
  8
标注
 62
     0
 48
5.0
370
    -2
100
AcDbLine
 10
100672.9916337028
 20
-46715.98952306986
 30
0.0
 11
100672.9916337028
 21
-46701.98952306986
 31
0.0
  0
LINE
  5
92EA
330
92E5
100
AcDbEntity
  8
标注
 62
     0
 48
5.0
370
    -2
100
AcDbLine
 10
100672.9916337028
 20
-46765.20207906984
 30
0.0
 11
100672.9916337028
 21
-46779.20207906987
 31
0.0
  0
LINE
  5
92EB
330
92E5
100
AcDbEntity
  8
标注
 62
     0
 48
5.0
370
    -2
100
AcDbLine
 10
100672.9916337028
 20
-46729.98952306985
 30
0.0
 11
100672.9916337028
 21
-46751.20207906986
 31
0.0
  0
SOLID
  5
92EC
330
92E5
100
AcDbEntity
  8
标注
 62
     0
 48
5.0
100
AcDbTrace
 10
100670.6583003694
 20
-46715.98952306986
 30
0.0
 11
100675.3249670361
 21
-46715.98952306986
 31
0.0
 12
100672.9916337028
 22
-46729.98952306985
 32
0.0
 13
100672.9916337028
 23
-46729.98952306985
 33
0.0
  0
SOLID
  5
92ED
330
92E5
100
AcDbEntity
  8
标注
 62
     0
 48
5.0
100
AcDbTrace
 10
100670.6583003694
 20
-46765.20207906984
 30
0.0
 11
100675.3249670361
 21
-46765.20207906984
 31
0.0
 12
100672.9916337028
 22
-46751.20207906986
 32
0.0
 13
100672.9916337028
 23
-46751.20207906986
 33
0.0
  0
MTEXT
  5
92EE
330
92E5
100
AcDbEntity
  8
标注
 62
     0
 48
5.0
100
AcDbMText
 10
100672.9916337028
 20
-46740.59580106983
 30
0.0
 40
14.0
 41
0.0
 71
     5
 72
     1
  1
21,2
 11
0.0000000000000001
 21
1.0
 31
0.0
 73
     1
 44
1.0
1001
ACAD
1000
MTEXTBEGIN
1070
    73
1070
     1
1070
    44
1040
1.0
1070
    74
1070
     0
1000
MTEXTEND
  0
POINT
  5
92EF
330
92E5
100
AcDbEntity
  8
DEFPOINTS
 62
     0
 48
5.0
100
AcDbPoint
 10
100670.2108884919
 20
-46729.98952306985
 30
0.0
  0
POINT
  5
92F0
330
92E5
100
AcDbEntity
  8
DEFPOINTS
 62
     0
 48
5.0
100
AcDbPoint
 10
100670.2699434919
 20
-46751.20207906986
 30
0.0
  0
POINT
  5
92F1
330
92E5
100
AcDbEntity
  8
DEFPOINTS
 62
     0
 48
5.0
100
AcDbPoint
 10
100672.9916337028
 20
-46751.20207906986
 30
0.0
  0
ENDBLK
  5
92F2
330
92E5
100
AcDbEntity
  8
0
 48
5.0
100
AcDbBlockEnd
  0
BLOCK
  5
92F4
330
92F3
100
AcDbEntity
  8
0
 48
5.0
100
AcDbBlockBegin
  2
*D59
 70
     1
 10
0.0
 20
0.0
 30
0.0
  3
*D59
  1

  0
LINE
  5
92F5
330
92F3
100
AcDbEntity
  8
标注
 62
     0
 48
5.0
370
    -2
100
AcDbLine
 10
100638.1597714919
 20
-46726.17757912441
 30
0.0
 11
100638.1597714919
 21
-46724.36020069085
 31
0.0
  0
LINE
  5
92F6
330
92F3
100
AcDbEntity
  8
标注
 62
     0
 48
5.0
370
    -2
100
AcDbLine
 10
100670.6636434919
 20
-46726.17757912441
 30
0.0
 11
100670.6636434919
 21
-46724.36020069085
 31
0.0
  0
LINE
  5
92F7
330
92F3
100
AcDbEntity
  8
标注
 62
     0
 48
5.0
370
    -2
100
AcDbLine
 10
100624.1597714919
 20
-46722.36020069084
 30
0.0
 11
100610.1597714919
 21
-46722.36020069084
 31
0.0
  0
LINE
  5
92F8
330
92F3
100
AcDbEntity
  8
标注
 62
     0
 48
5.0
370
    -2
100
AcDbLine
 10
100684.6636434919
 20
-46722.36020069084
 30
0.0
 11
100698.6636434919
 21
-46722.36020069084
 31
0.0
  0
LINE
  5
92F9
330
92F3
100
AcDbEntity
  8
标注
 62
     0
 48
5.0
370
    -2
100
AcDbLine
 10
100638.1597714919
 20
-46722.36020069084
 30
0.0
 11
100670.6636434919
 21
-46722.36020069084
 31
0.0
  0
SOLID
  5
92FA
330
92F3
100
AcDbEntity
  8
标注
 62
     0
 48
5.0
100
AcDbTrace
 10
100624.1597714919
 20
-46720.02686735751
 30
0.0
 11
100624.1597714919
 21
-46724.69353402417
 31
0.0
 12
100638.1597714919
 22
-46722.36020069084
 32
0.0
 13
100638.1597714919
 23
-46722.36020069084
 33
0.0
  0
SOLID
  5
92FB
330
92F3
100
AcDbEntity
  8
标注
 62
     0
 48
5.0
100
AcDbTrace
 10
100684.6636434919
 20
-46720.02686735751
 30
0.0
 11
100684.6636434919
 21
-46724.69353402417
 31
0.0
 12
100670.6636434919
 22
-46722.36020069084
 32
0.0
 13
100670.6636434919
 23
-46722.36020069084
 33
0.0
  0
MTEXT
  5
92FC
330
92F3
100
AcDbEntity
  8
标注
 62
     0
 48
5.0
100
AcDbMText
 10
100722.3691990474
 20
-46722.36020069084
 30
0.0
 40
14.0
 41
0.0
 71
     5
 72
     1
  1
32,5
 73
     1
 44
1.0
1001
ACAD
1000
MTEXTBEGIN
1070
    73
1070
     1
1070
    44
1040
1.0
1070
    74
1070
     0
1000
MTEXTEND
  0
POINT
  5
92FD
330
92F3
100
AcDbEntity
  8
DEFPOINTS
 62
     0
 48
5.0
100
AcDbPoint
 10
100638.1597714919
 20
-46716.17757912444
 30
0.0
  0
POINT
  5
92FE
330
92F3
100
AcDbEntity
  8
DEFPOINTS
 62
     0
 48
5.0
100
AcDbPoint
 10
100670.6636434919
 20
-46716.17757912444
 30
0.0
  0
POINT
  5
92FF
330
92F3
100
AcDbEntity
  8
DEFPOINTS
 62
     0
 48
5.0
100
AcDbPoint
 10
100670.6636434919
 20
-46722.36020069084
 30
0.0
  0
ENDBLK
  5
9300
330
92F3
100
AcDbEntity
  8
0
 48
5.0
100
AcDbBlockEnd
  0
BLOCK
  5
9302
330
9301
100
AcDbEntity
  8
0
 48
5.0
100
AcDbBlockBegin
  2
*D60
 70
     1
 10
0.0
 20
0.0
 30
0.0
  3
*D60
  1

  0
LINE
  5
9303
330
9301
100
AcDbEntity
  8
标注
 62
     0
 48
5.0
370
    -2
100
AcDbLine
 10
100654.8732967879
 20
-46686.73960258644
 30
0.0
 11
100647.3092983212
 21
-46700.83874891511
 31
0.0
  0
MTEXT
  5
9304
330
9301
100
AcDbEntity
  8
标注
 62
     0
 48
5.0
100
AcDbMText
 10
100667.6375442003
 20
-46662.94729315684
 30
0.0
 40
16.0
 41
0.0
 71
     5
 72
     1
  1
R0,4
 11
0.4727499041637758
 21
0.881196645541244
 31
0.0
 73
     1
 44
1.0
1001
ACAD
1000
MTEXTBEGIN
1070
    73
1070
     1
1070
    44
1040
1.0
1070
    74
1070
     0
1000
MTEXTEND
  0
SOLID
  5
9305
330
9301
100
AcDbEntity
  8
标注
 62
     0
 48
5.0
100
AcDbTrace
 10
100644.9594405998
 20
-46699.57808250401
 30
0.0
 11
100649.6591560427
 21
-46702.09941532622
 31
0.0
 12
100639.7452998546
 22
-46714.93789524377
 32
0.0
 13
100639.7452998546
 23
-46714.93789524377
 33
0.0
  0
POINT
  5
9306
330
9301
100
AcDbEntity
  8
DEFPOINTS
 62
     0
 48
5.0
100
AcDbPoint
 10
100639.7452998546
 20
-46714.93789524377
 30
0.0
  0
POINT
  5
9307
330
9301
100
AcDbEntity
  8
DEFPOINTS
 62
     0
 48
5.0
100
AcDbPoint
 10
100639.9314214919
 20
-46714.59096812442
 30
0.0
  0
ENDBLK
  5
9308
330
9301
100
AcDbEntity
  8
0
 48
5.0
100
AcDbBlockEnd
  0
BLOCK
  5
930A
330
9309
100
AcDbEntity
  8
0
 48
5.0
100
AcDbBlockBegin
  2
*D61
 70
     1
 10
0.0
 20
0.0
 30
0.0
  3
*D61
  1

  0
LINE
  5
930B
330
9309
100
AcDbEntity
  8
标注
 62
     0
 48
5.0
370
    -2
100
AcDbLine
 10
100638.5534714919
 20
-46761.20207906985
 30
0.0
 11
100638.5534714919
 21
-46755.97782781986
 31
0.0
  0
LINE
  5
930C
330
9309
100
AcDbEntity
  8
标注
 62
     0
 48
5.0
370
    -2
100
AcDbLine
 10
100670.2699434919
 20
-46761.20207906985
 30
0.0
 11
100670.2699434919
 21
-46755.97782781986
 31
0.0
  0
LINE
  5
930D
330
9309
100
AcDbEntity
  8
标注
 62
     0
 48
5.0
370
    -2
100
AcDbLine
 10
100624.5534714919
 20
-46753.97782781987
 30
0.0
 11
100610.5534714919
 21
-46753.97782781987
 31
0.0
  0
LINE
  5
930E
330
9309
100
AcDbEntity
  8
标注
 62
     0
 48
5.0
370
    -2
100
AcDbLine
 10
100684.2699434919
 20
-46753.97782781987
 30
0.0
 11
100698.2699434919
 21
-46753.97782781987
 31
0.0
  0
LINE
  5
930F
330
9309
100
AcDbEntity
  8
标注
 62
     0
 48
5.0
370
    -2
100
AcDbLine
 10
100638.5534714919
 20
-46753.97782781987
 30
0.0
 11
100670.2699434919
 21
-46753.97782781987
 31
0.0
  0
SOLID
  5
9310
330
9309
100
AcDbEntity
  8
标注
 62
     0
 48
5.0
100
AcDbTrace
 10
100624.5534714919
 20
-46751.64449448653
 30
0.0
 11
100624.5534714919
 21
-46756.3111611532
 31
0.0
 12
100638.5534714919
 22
-46753.97782781987
 32
0.0
 13
100638.5534714919
 23
-46753.97782781987
 33
0.0
  0
SOLID
  5
9311
330
9309
100
AcDbEntity
  8
标注
 62
     0
 48
5.0
100
AcDbTrace
 10
100684.2699434919
 20
-46751.64449448653
 30
0.0
 11
100684.2699434919
 21
-46756.3111611532
 31
0.0
 12
100670.2699434919
 22
-46753.97782781987
 32
0.0
 13
100670.2699434919
 23
-46753.97782781987
 33
0.0
  0
MTEXT
  5
9312
330
9309
100
AcDbEntity
  8
标注
 62
     0
 48
5.0
100
AcDbMText
 10
100722.0143879363
 20
-46753.97782781987
 30
0.0
 40
14.0
 41
0.0
 71
     5
 72
     1
  1
31,7
 73
     1
 44
1.0
1001
ACAD
1000
MTEXTBEGIN
1070
    73
1070
     1
1070
    44
1040
1.0
1070
    74
1070
     0
1000
MTEXTEND
  0
POINT
  5
9313
330
9309
100
AcDbEntity
  8
DEFPOINTS
 62
     0
 48
5.0
100
AcDbPoint
 10
100638.5534714919
 20
-46751.20207906986
 30
0.0
  0
POINT
  5
9314
330
9309
100
AcDbEntity
  8
DEFPOINTS
 62
     0
 48
5.0
100
AcDbPoint
 10
100670.2699434919
 20
-46751.20207906986
 30
0.0
  0
POINT
  5
9315
330
9309
100
AcDbEntity
  8
DEFPOINTS
 62
     0
 48
5.0
100
AcDbPoint
 10
100670.2699434919
 20
-46753.97782781987
 30
0.0
  0
ENDBLK
  5
9316
330
9309
100
AcDbEntity
  8
0
 48
5.0
100
AcDbBlockEnd
  0
BLOCK
  5
9404
330
9403
100
AcDbEntity
  8
0
100
AcDbBlockBegin
  2
*D62
 70
     1
 10
0.0
 20
0.0
 30
0.0
  3
*D62
  1

  0
LINE
  5
94C7
330
9403
100
AcDbEntity
  8
标注线
 48
5.0
370
    -2
100
AcDbLine
 10
1604.503859536683
 20
115.4040202394949
 30
0.0
 11
1606.724604747565
 21
115.4040202394949
 31
0.0
  0
LINE
  5
94C8
330
9403
100
AcDbEntity
  8
标注线
 48
5.0
370
    -2
100
AcDbLine
 10
1604.562914536688
 20
94.19146423949632
 30
0.0
 11
1606.724604747565
 21
94.19146423949632
 31
0.0
  0
LINE
  5
94C9
330
9403
100
AcDbEntity
  8
标注线
 48
5.0
370
    -2
100
AcDbLine
 10
1606.404604747566
 20
114.7540202394949
 30
0.0
 11
1606.404604747566
 21
106.4866406023878
 31
0.0
  0
LINE
  5
94CA
330
9403
100
AcDbEntity
  8
标注线
 48
5.0
370
    -2
100
AcDbLine
 10
1606.404604747566
 20
94.8414642394963
 30
0.0
 11
1606.404604747566
 21
103.1088438766034
 31
0.0
  0
MTEXT
  5
94CB
330
9403
100
AcDbEntity
  8
标注线
 48
5.0
100
AcDbMText
 10
1606.404604747566
 20
104.7977422394958
 30
0.0
 40
0.65
 41
0.0
 71
     5
 72
     1
  1
\A1;21 1/4"
 11
0.0000000000000001
 21
1.0
 31
0.0
 73
     1
 44
1.0
1001
ACAD
1000
MTEXTBEGIN
1070
    73
1070
     1
1070
    44
1040
1.0
1070
    74
1070
     0
1000
MTEXTEND
  0
SOLID
  5
94CC
330
9403
100
AcDbEntity
  8
标注线
 48
5.0
100
AcDbTrace
 10
1606.296271414232
 20
114.7540202394949
 30
0.0
 11
1606.512938080899
 21
114.7540202394949
 31
0.0
 12
1606.404604747566
 22
115.4040202394949
 32
0.0
 13
1606.404604747566
 23
115.4040202394949
 33
0.0
  0
SOLID
  5
94CD
330
9403
100
AcDbEntity
  8
标注线
 48
5.0
100
AcDbTrace
 10
1606.296271414232
 20
94.8414642394963
 30
0.0
 11
1606.512938080899
 21
94.8414642394963
 31
0.0
 12
1606.404604747566
 22
94.19146423949632
 32
0.0
 13
1606.404604747566
 23
94.19146423949632
 33
0.0
  0
POINT
  5
94CE
330
9403
100
AcDbEntity
  8
DEFPOINTS
 62
     0
 48
5.0
100
AcDbPoint
 10
1603.623859536683
 20
115.4040202394949
 30
0.0
  0
POINT
  5
94CF
330
9403
100
AcDbEntity
  8
DEFPOINTS
 62
     0
 48
5.0
100
AcDbPoint
 10
1603.682914536688
 20
94.19146423949632
 30
0.0
  0
POINT
  5
94D0
330
9403
100
AcDbEntity
  8
DEFPOINTS
 62
     0
 48
5.0
100
AcDbPoint
 10
1606.404604747566
 20
94.19146423949632
 30
0.0
  0
ENDBLK
  5
9405
330
9403
100
AcDbEntity
  8
0
100
AcDbBlockEnd
  0
BLOCK
  5
9412
330
9411
100
AcDbEntity
  8
0
100
AcDbBlockBegin
  2
*D63
 70
     1
 10
0.0
 20
0.0
 30
0.0
  3
*D63
  1

  0
LINE
  5
9564
330
9411
100
AcDbEntity
  8
标注线
 48
5.0
370
    -2
100
AcDbLine
 10
1604.897559536684
 20
151.1568651849279
 30
0.0
 11
1608.051686030763
 21
151.1568651849279
 31
0.0
  0
LINE
  5
9565
330
9411
100
AcDbEntity
  8
标注线
 48
5.0
370
    -2
100
AcDbLine
 10
1604.897559536684
 20
129.1569091849283
 30
0.0
 11
1608.051686030763
 21
129.1569091849283
 31
0.0
  0
LINE
  5
9566
330
9411
100
AcDbEntity
  8
标注线
 48
5.0
370
    -2
100
AcDbLine
 10
1607.731686030763
 20
150.5068651849279
 30
0.0
 11
1607.731686030763
 21
140.9104693364877
 31
0.0
  0
LINE
  5
9567
330
9411
100
AcDbEntity
  8
标注线
 48
5.0
370
    -2
100
AcDbLine
 10
1607.731686030763
 20
129.8069091849283
 30
0.0
 11
1607.731686030763
 21
139.0472701550416
 31
0.0
  0
MTEXT
  5
9568
330
9411
100
AcDbEntity
  8
标注线
 48
5.0
100
AcDbMText
 10
1607.731686030763
 20
139.9788697457649
 30
0.0
 40
0.65
 41
0.0
 71
     5
 72
     1
  1
\A1;22"
 11
0.0000000000000001
 21
1.0
 31
0.0
 73
     1
 44
1.0
1001
ACAD
1000
MTEXTBEGIN
1070
    73
1070
     1
1070
    44
1040
1.0
1070
    74
1070
     0
1000
MTEXTEND
  0
SOLID
  5
9569
330
9411
100
AcDbEntity
  8
标注线
 48
5.0
100
AcDbTrace
 10
1607.62335269743
 20
150.5068651849279
 30
0.0
 11
1607.840019364096
 21
150.5068651849279
 31
0.0
 12
1607.731686030763
 22
151.1568651849279
 32
0.0
 13
1607.731686030763
 23
151.1568651849279
 33
0.0
  0
SOLID
  5
956A
330
9411
100
AcDbEntity
  8
标注线
 48
5.0
100
AcDbTrace
 10
1607.62335269743
 20
129.8069091849283
 30
0.0
 11
1607.840019364096
 21
129.8069091849283
 31
0.0
 12
1607.731686030763
 22
129.1569091849283
 32
0.0
 13
1607.731686030763
 23
129.1569091849283
 33
0.0
  0
POINT
  5
956B
330
9411
100
AcDbEntity
  8
DEFPOINTS
 62
     0
 48
5.0
100
AcDbPoint
 10
1604.017559536683
 20
151.1568651849279
 30
0.0
  0
POINT
  5
956C
330
9411
100
AcDbEntity
  8
DEFPOINTS
 62
     0
 48
5.0
100
AcDbPoint
 10
1604.017559536683
 20
129.1569091849283
 30
0.0
  0
POINT
  5
956D
330
9411
100
AcDbEntity
  8
DEFPOINTS
 62
     0
 48
5.0
100
AcDbPoint
 10
1607.731686030763
 20
129.1569091849283
 30
0.0
  0
ENDBLK
  5
9413
330
9411
100
AcDbEntity
  8
0
100
AcDbBlockEnd
  0
BLOCK
  5
9420
330
941F
100
AcDbEntity
  8
0
100
AcDbBlockBegin
  2
*D64
 70
     1
 10
0.0
 20
0.0
 30
0.0
  3
*D64
  1

  0
LINE
  5
955A
330
941F
100
AcDbEntity
  8
标注线
 48
5.0
370
    -2
100
AcDbLine
 10
1603.57866453668
 20
147.4088411849275
 30
0.0
 11
1606.355444233646
 21
147.4088411849275
 31
0.0
  0
LINE
  5
955B
330
941F
100
AcDbEntity
  8
标注线
 48
5.0
370
    -2
100
AcDbLine
 10
1603.57866453668
 20
130.4088751849244
 30
0.0
 11
1606.355444233646
 21
130.4088751849244
 31
0.0
  0
LINE
  5
955C
330
941F
100
AcDbEntity
  8
标注线
 48
5.0
370
    -2
100
AcDbLine
 10
1606.035444233645
 20
146.7588411849275
 30
0.0
 11
1606.035444233645
 21
140.8825378045164
 31
0.0
  0
LINE
  5
955D
330
941F
100
AcDbEntity
  8
标注线
 48
5.0
370
    -2
100
AcDbLine
 10
1606.035444233645
 20
131.0588751849244
 30
0.0
 11
1606.035444233645
 21
139.0916101101099
 31
0.0
  0
MTEXT
  5
955E
330
941F
100
AcDbEntity
  8
标注线
 48
5.0
100
AcDbMText
 10
1606.035444233645
 20
139.9870739573134
 30
0.0
 40
0.65
 41
0.0
 71
     5
 72
     1
  1
\A1;17"
 11
0.0000000000000001
 21
1.0
 31
0.0
 73
     1
 44
1.0
1001
ACAD
1000
MTEXTBEGIN
1070
    73
1070
     1
1070
    44
1040
1.0
1070
    74
1070
     0
1000
MTEXTEND
  0
SOLID
  5
955F
330
941F
100
AcDbEntity
  8
标注线
 48
5.0
100
AcDbTrace
 10
1605.927110900312
 20
146.7588411849275
 30
0.0
 11
1606.143777566979
 21
146.7588411849275
 31
0.0
 12
1606.035444233645
 22
147.4088411849275
 32
0.0
 13
1606.035444233645
 23
147.4088411849275
 33
0.0
  0
SOLID
  5
9560
330
941F
100
AcDbEntity
  8
标注线
 48
5.0
100
AcDbTrace
 10
1605.927110900312
 20
131.0588751849244
 30
0.0
 11
1606.143777566979
 21
131.0588751849244
 31
0.0
 12
1606.035444233645
 22
130.4088751849244
 32
0.0
 13
1606.035444233645
 23
130.4088751849244
 33
0.0
  0
POINT
  5
9561
330
941F
100
AcDbEntity
  8
DEFPOINTS
 62
     0
 48
5.0
100
AcDbPoint
 10
1602.69866453668
 20
147.4088411849275
 30
0.0
  0
POINT
  5
9562
330
941F
100
AcDbEntity
  8
DEFPOINTS
 62
     0
 48
5.0
100
AcDbPoint
 10
1602.69866453668
 20
130.4088751849244
 30
0.0
  0
POINT
  5
9563
330
941F
100
AcDbEntity
  8
DEFPOINTS
 62
     0
 48
5.0
100
AcDbPoint
 10
1606.035444233645
 20
130.4088751849244
 30
0.0
  0
ENDBLK
  5
9421
330
941F
100
AcDbEntity
  8
0
100
AcDbBlockEnd
  0
BLOCK
  5
942E
330
942D
100
AcDbEntity
  8
0
100
AcDbBlockBegin
  2
*D65
 70
     1
 10
0.0
 20
0.0
 30
0.0
  3
*D65
  1

  0
LINE
  5
9546
330
942D
100
AcDbEntity
  8
标注线
 48
5.0
370
    -2
100
AcDbLine
 10
1602.69866453668
 20
130.1194251849252
 30
0.0
 11
1602.69866453668
 21
126.1590898567091
 31
0.0
  0
LINE
  5
9547
330
942D
100
AcDbEntity
  8
标注线
 48
5.0
370
    -2
100
AcDbLine
 10
1572.950692536682
 20
129.5288751849244
 30
0.0
 11
1572.950692536682
 21
126.1590898567091
 31
0.0
  0
LINE
  5
9548
330
942D
100
AcDbEntity
  8
标注线
 48
5.0
370
    -2
100
AcDbLine
 10
1602.048664536679
 20
126.4790898567091
 30
0.0
 11
1589.513576899573
 21
126.4790898567091
 31
0.0
  0
LINE
  5
9549
330
942D
100
AcDbEntity
  8
标注线
 48
5.0
370
    -2
100
AcDbLine
 10
1573.600692536682
 20
126.4790898567091
 30
0.0
 11
1586.135780173789
 21
126.4790898567091
 31
0.0
  0
MTEXT
  5
954A
330
942D
100
AcDbEntity
  8
标注线
 48
5.0
100
AcDbMText
 10
1587.824678536681
 20
126.4790898567091
 30
0.0
 40
0.65
 41
0.0
 71
     5
 72
     1
  1
\A1;29 3/4"
 73
     1
 44
1.0
1001
ACAD
1000
MTEXTBEGIN
1070
    73
1070
     1
1070
    44
1040
1.0
1070
    74
1070
     0
1000
MTEXTEND
  0
SOLID
  5
954B
330
942D
100
AcDbEntity
  8
标注线
 48
5.0
100
AcDbTrace
 10
1602.048664536679
 20
126.5874231900425
 30
0.0
 11
1602.048664536679
 21
126.3707565233758
 31
0.0
 12
1602.69866453668
 22
126.4790898567091
 32
0.0
 13
1602.69866453668
 23
126.4790898567091
 33
0.0
  0
SOLID
  5
954C
330
942D
100
AcDbEntity
  8
标注线
 48
5.0
100
AcDbTrace
 10
1573.600692536682
 20
126.5874231900425
 30
0.0
 11
1573.600692536682
 21
126.3707565233758
 31
0.0
 12
1572.950692536682
 22
126.4790898567091
 32
0.0
 13
1572.950692536682
 23
126.4790898567091
 33
0.0
  0
POINT
  5
954D
330
942D
100
AcDbEntity
  8
DEFPOINTS
 62
     0
 48
5.0
100
AcDbPoint
 10
1602.69866453668
 20
130.9994251849252
 30
0.0
  0
POINT
  5
954E
330
942D
100
AcDbEntity
  8
DEFPOINTS
 62
     0
 48
5.0
100
AcDbPoint
 10
1572.950692536682
 20
130.4088751849244
 30
0.0
  0
POINT
  5
954F
330
942D
100
AcDbEntity
  8
DEFPOINTS
 62
     0
 48
5.0
100
AcDbPoint
 10
1572.950692536682
 20
126.4790898567091
 30
0.0
  0
ENDBLK
  5
942F
330
942D
100
AcDbEntity
  8
0
100
AcDbBlockEnd
  0
BLOCK
  5
943C
330
943B
100
AcDbEntity
  8
0
100
AcDbBlockBegin
  2
*D66
 70
     1
 10
0.0
 20
0.0
 30
0.0
  3
*D66
  1

  0
LINE
  5
95E9
330
943B
100
AcDbEntity
  8
标注线
 48
5.0
370
    -2
100
AcDbLine
 10
1604.956614536689
 20
170.5805589502974
 30
0.0
 11
1606.447693468455
 21
170.5805589502974
 31
0.0
  0
LINE
  5
95EA
330
943B
100
AcDbEntity
  8
标注线
 48
5.0
370
    -2
100
AcDbLine
 10
1603.648373970053
 20
165.0800861849543
 30
0.0
 11
1606.447693468455
 21
165.0800861849543
 31
0.0
  0
LINE
  5
95EB
330
943B
100
AcDbEntity
  8
标注线
 48
5.0
370
    -2
100
AcDbLine
 10
1606.127693468455
 20
169.9305589502974
 30
0.0
 11
1606.127693468455
 21
169.5553524995285
 31
0.0
  0
LINE
  5
95EC
330
943B
100
AcDbEntity
  8
标注线
 48
5.0
370
    -2
100
AcDbLine
 10
1606.127693468455
 20
165.7300861849543
 30
0.0
 11
1606.127693468455
 21
166.6936540002107
 31
0.0
  0
MTEXT
  5
95ED
330
943B
100
AcDbEntity
  8
标注线
 48
5.0
100
AcDbMText
 10
1606.127693468455
 20
168.1245032498699
 30
0.0
 40
0.65
 41
0.0
 71
     5
 72
     1
  1
\A1;5 1/2"
 11
0.0000000000000001
 21
1.0
 31
0.0
 73
     1
 44
1.0
1001
ACAD
1000
MTEXTBEGIN
1070
    73
1070
     1
1070
    44
1040
1.0
1070
    74
1070
     0
1000
MTEXTEND
  0
SOLID
  5
95EE
330
943B
100
AcDbEntity
  8
标注线
 48
5.0
100
AcDbTrace
 10
1606.019360135122
 20
169.9305589502974
 30
0.0
 11
1606.236026801789
 21
169.9305589502974
 31
0.0
 12
1606.127693468455
 22
170.5805589502974
 32
0.0
 13
1606.127693468455
 23
170.5805589502974
 33
0.0
  0
SOLID
  5
95EF
330
943B
100
AcDbEntity
  8
标注线
 48
5.0
100
AcDbTrace
 10
1606.019360135122
 20
165.7300861849543
 30
0.0
 11
1606.236026801789
 21
165.7300861849543
 31
0.0
 12
1606.127693468455
 22
165.0800861849543
 32
0.0
 13
1606.127693468455
 23
165.0800861849543
 33
0.0
  0
POINT
  5
95F0
330
943B
100
AcDbEntity
  8
DEFPOINTS
 62
     0
 48
5.0
100
AcDbPoint
 10
1604.076614536689
 20
170.5805589502974
 30
0.0
  0
POINT
  5
95F1
330
943B
100
AcDbEntity
  8
DEFPOINTS
 62
     0
 48
5.0
100
AcDbPoint
 10
1602.768373970053
 20
165.0800861849543
 30
0.0
  0
POINT
  5
95F2
330
943B
100
AcDbEntity
  8
DEFPOINTS
 62
     0
 48
5.0
100
AcDbPoint
 10
1606.127693468455
 20
165.0800861849543
 30
0.0
  0
ENDBLK
  5
943D
330
943B
100
AcDbEntity
  8
0
100
AcDbBlockEnd
  0
BLOCK
  5
9455
330
9454
100
AcDbEntity
  8
0
100
AcDbBlockBegin
  2
*D67
 70
     1
 10
0.0
 20
0.0
 30
0.0
  3
*D67
  1

  0
LINE
  5
94A9
330
9454
100
AcDbEntity
  8
标注线
 48
5.0
370
    -2
100
AcDbLine
 10
1571.966442536688
 20
93.31146423949631
 30
0.0
 11
1571.966442536688
 21
91.09571548949059
 31
0.0
  0
LINE
  5
94AA
330
9454
100
AcDbEntity
  8
标注线
 48
5.0
370
    -2
100
AcDbLine
 10
1603.682914536688
 20
93.31146423949631
 30
0.0
 11
1603.682914536688
 21
91.09571548949059
 31
0.0
  0
LINE
  5
94AB
330
9454
100
AcDbEntity
  8
标注线
 48
5.0
370
    -2
100
AcDbLine
 10
1572.616442536688
 20
91.41571548949057
 30
0.0
 11
1586.141544157425
 21
91.41571548949057
 31
0.0
  0
LINE
  5
94AC
330
9454
100
AcDbEntity
  8
标注线
 48
5.0
370
    -2
100
AcDbLine
 10
1603.032914536688
 20
91.41571548949057
 30
0.0
 11
1589.507812915951
 21
91.41571548949057
 31
0.0
  0
SOLID
  5
94AD
330
9454
100
AcDbEntity
  8
标注线
 48
5.0
100
AcDbTrace
 10
1572.616442536688
 20
91.52404882282393
 30
0.0
 11
1572.616442536688
 21
91.30738215615728
 31
0.0
 12
1571.966442536688
 22
91.41571548949057
 32
0.0
 13
1571.966442536688
 23
91.41571548949057
 33
0.0
  0
SOLID
  5
94AE
330
9454
100
AcDbEntity
  8
标注线
 48
5.0
100
AcDbTrace
 10
1603.032914536688
 20
91.52404882282393
 30
0.0
 11
1603.032914536688
 21
91.30738215615728
 31
0.0
 12
1603.682914536688
 22
91.41571548949057
 32
0.0
 13
1603.682914536688
 23
91.41571548949057
 33
0.0
  0
MTEXT
  5
94AF
330
9454
100
AcDbEntity
  8
标注线
 48
5.0
100
AcDbMText
 10
1587.824678536688
 20
91.41571548949057
 30
0.0
 40
0.65
 41
0.0
 71
     5
 72
     1
  1
\A1;31 3/4"
 73
     1
 44
1.0
1001
ACAD
1000
MTEXTBEGIN
1070
    73
1070
     1
1070
    44
1040
1.0
1070
    74
1070
     0
1000
MTEXTEND
  0
POINT
  5
94B0
330
9454
100
AcDbEntity
  8
DEFPOINTS
 62
     0
 48
5.0
100
AcDbPoint
 10
1571.966442536688
 20
94.19146423949632
 30
0.0
  0
POINT
  5
94B1
330
9454
100
AcDbEntity
  8
DEFPOINTS
 62
     0
 48
5.0
100
AcDbPoint
 10
1603.682914536688
 20
94.19146423949632
 30
0.0
  0
POINT
  5
94B2
330
9454
100
AcDbEntity
  8
DEFPOINTS
 62
     0
 48
5.0
100
AcDbPoint
 10
1603.682914536688
 20
91.41571548949057
 30
0.0
  0
ENDBLK
  5
9456
330
9454
100
AcDbEntity
  8
0
100
AcDbBlockEnd
  0
BLOCK
  5
9484
330
9483
100
AcDbEntity
  8
0
100
AcDbBlockBegin
  2
*D68
 70
     1
 10
0.0
 20
0.0
 30
0.0
  3
*D68
  1

  0
LINE
  5
9550
330
9483
100
AcDbEntity
  8
标注线
 48
5.0
370
    -2
100
AcDbLine
 10
1571.572742536688
 20
128.3359641849262
 30
0.0
 11
1571.572742536688
 21
124.2059215206972
 31
0.0
  0
LINE
  5
9551
330
9483
100
AcDbEntity
  8
标注线
 48
5.0
370
    -2
100
AcDbLine
 10
1604.076614536689
 20
128.3359641849262
 30
0.0
 11
1604.076614536689
 21
124.2059215206972
 31
0.0
  0
LINE
  5
9552
330
9483
100
AcDbEntity
  8
标注线
 48
5.0
370
    -2
100
AcDbLine
 10
1572.222742536688
 20
124.5259215206972
 30
0.0
 11
1586.141544157425
 21
124.5259215206972
 31
0.0
  0
LINE
  5
9553
330
9483
100
AcDbEntity
  8
标注线
 48
5.0
370
    -2
100
AcDbLine
 10
1603.426614536689
 20
124.5259215206972
 30
0.0
 11
1589.507812915951
 21
124.5259215206972
 31
0.0
  0
SOLID
  5
9554
330
9483
100
AcDbEntity
  8
标注线
 48
5.0
100
AcDbTrace
 10
1572.222742536688
 20
124.6342548540305
 30
0.0
 11
1572.222742536688
 21
124.4175881873639
 31
0.0
 12
1571.572742536688
 22
124.5259215206972
 32
0.0
 13
1571.572742536688
 23
124.5259215206972
 33
0.0
  0
SOLID
  5
9555
330
9483
100
AcDbEntity
  8
标注线
 48
5.0
100
AcDbTrace
 10
1603.426614536689
 20
124.6342548540305
 30
0.0
 11
1603.426614536689
 21
124.4175881873639
 31
0.0
 12
1604.076614536689
 22
124.5259215206972
 32
0.0
 13
1604.076614536689
 23
124.5259215206972
 33
0.0
  0
MTEXT
  5
9556
330
9483
100
AcDbEntity
  8
标注线
 48
5.0
100
AcDbMText
 10
1587.824678536688
 20
124.5259215206972
 30
0.0
 40
0.65
 41
0.0
 71
     5
 72
     1
  1
\A1;32 1/2"
 73
     1
 44
1.0
1001
ACAD
1000
MTEXTBEGIN
1070
    73
1070
     1
1070
    44
1040
1.0
1070
    74
1070
     0
1000
MTEXTEND
  0
POINT
  5
9557
330
9483
100
AcDbEntity
  8
DEFPOINTS
 62
     0
 48
5.0
100
AcDbPoint
 10
1571.572742536688
 20
129.2159641849262
 30
0.0
  0
POINT
  5
9558
330
9483
100
AcDbEntity
  8
DEFPOINTS
 62
     0
 48
5.0
100
AcDbPoint
 10
1604.076614536689
 20
129.2159641849262
 30
0.0
  0
POINT
  5
9559
330
9483
100
AcDbEntity
  8
DEFPOINTS
 62
     0
 48
5.0
100
AcDbPoint
 10
1604.076614536689
 20
124.5259215206972
 30
0.0
  0
ENDBLK
  5
9485
330
9483
100
AcDbEntity
  8
0
100
AcDbBlockEnd
  0
BLOCK
  5
949D
330
949C
100
AcDbEntity
  8
0
100
AcDbBlockBegin
  2
*D69
 70
     1
 10
0.0
 20
0.0
 30
0.0
  3
*D69
  1

  0
LINE
  5
9503
330
949C
100
AcDbEntity
  8
标注线
 48
5.0
370
    -2
100
AcDbLine
 10
1572.850983461712
 20
129.8828702459842
 30
0.0
 11
1572.543696024006
 21
129.3100924263825
 31
0.0
  0
MTEXT
  5
9504
330
949C
100
AcDbEntity
  8
标注线
 48
5.0
100
AcDbMText
 10
1601.13951863768
 20
182.6121507488146
 30
0.0
 40
0.65
 41
0.0
 71
     5
 72
     1
  1
\A1;R3/8"
 11
0.4727499041637758
 21
0.881196645541244
 31
0.0
 73
     1
 44
1.0
1001
ACAD
1000
MTEXTBEGIN
1070
    73
1070
     1
1070
    44
1040
1.0
1070
    74
1070
     0
1000
MTEXTEND
  0
LINE
  5
9505
330
949C
100
AcDbEntity
  8
标注线
 48
5.0
370
    -2
100
AcDbLine
 10
1573.344392536682
 20
130.802575184925
 30
0.0
 11
1573.158270899419
 21
130.455648065586
 31
0.0
  0
SOLID
  5
9506
330
949C
100
AcDbEntity
  8
标注线
 48
5.0
100
AcDbTrace
 10
1572.755520491779
 20
129.9340848189352
 30
0.0
 11
1572.946446431646
 21
129.831655673033
 31
0.0
 12
1573.158270899419
 22
130.455648065586
 32
0.0
 13
1573.158270899419
 23
130.455648065586
 33
0.0
  0
POINT
  5
9507
330
949C
100
AcDbEntity
  8
DEFPOINTS
 62
     0
 48
5.0
100
AcDbPoint
 10
1573.158270899419
 20
130.455648065586
 30
0.0
  0
POINT
  5
9508
330
949C
100
AcDbEntity
  8
DEFPOINTS
 62
     0
 48
5.0
100
AcDbPoint
 10
1573.344392536682
 20
130.802575184925
 30
0.0
  0
ENDBLK
  5
949E
330
949C
100
AcDbEntity
  8
0
100
AcDbBlockEnd
  0
BLOCK
  5
952A
330
9529
100
AcDbEntity
  8
0
100
AcDbBlockBegin
  2
*D70
 70
     1
 10
0.0
 20
0.0
 30
0.0
  3
*D70
  1

  0
LINE
  5
952C
330
9529
100
AcDbEntity
  8
标注线
  6
Continuous
370
    -2
100
AcDbLine
 10
1572.707547224027
 20
129.9756908291969
 30
0.0
 11
1572.310929945856
 21
129.4607202138637
 31
0.0
  0
MTEXT
  5
952D
330
9529
100
AcDbEntity
  8
标注线
100
AcDbMText
 10
1573.961198711918
 20
131.9880412657438
 30
0.0
 40
0.65
 41
0.0
 71
     5
 72
     1
  1
\A1;R3/8"
 11
0.6101804279544436
 21
0.792262485128087
 31
0.0
 73
     1
 44
1.0
1001
ACAD
1000
MTEXTBEGIN
1070
    73
1070
     1
1070
    44
1040
1.0
1070
    74
1070
     0
1000
MTEXTEND
  0
LINE
  5
952E
330
9529
100
AcDbEntity
  8
标注线
  6
Continuous
370
    -2
100
AcDbLine
 10
1573.344392536682
 20
130.802575184925
 30
0.0
 11
1573.104164502197
 21
130.4906614445302
 31
0.0
  0
SOLID
  5
952F
330
9529
100
AcDbEntity
  8
标注线
100
AcDbTrace
 10
1572.621718788138
 20
130.0417937088921
 30
0.0
 11
1572.793375659915
 21
129.9095879495019
 31
0.0
 12
1573.104164502197
 22
130.4906614445302
 32
0.0
 13
1573.104164502197
 23
130.4906614445302
 33
0.0
  0
POINT
  5
9530
330
9529
100
AcDbEntity
  8
DEFPOINTS
 62
     0
100
AcDbPoint
 10
1573.104164502197
 20
130.4906614445302
 30
0.0
  0
POINT
  5
9531
330
9529
100
AcDbEntity
  8
DEFPOINTS
 62
     0
100
AcDbPoint
 10
1573.344392536682
 20
130.802575184925
 30
0.0
  0
ENDBLK
  5
952B
330
9529
100
AcDbEntity
  8
0
100
AcDbBlockEnd
  0
BLOCK
  5
964E
330
964D
100
AcDbEntity
  8
0
 48
5.0
100
AcDbBlockBegin
  2
*D71
 70
     1
 10
0.0
 20
0.0
 30
0.0
  3
*D71
  1

  0
LINE
  5
964F
330
964D
100
AcDbEntity
  8
标注线
 48
5.0
370
    -2
100
AcDbLine
 10
33713.52252656834
 20
-104048.5937892579
 30
0.0
 11
33707.04109855914
 21
-104048.5937892579
 31
0.0
  0
LINE
  5
9650
330
964D
100
AcDbEntity
  8
标注线
 48
5.0
370
    -2
100
AcDbLine
 10
33713.52252656834
 20
-104070.5937452578
 30
0.0
 11
33707.04109855914
 21
-104070.5937452578
 31
0.0
  0
LINE
  5
9651
330
964D
100
AcDbEntity
  8
标注线
 48
5.0
370
    -2
100
AcDbLine
 10
33699.04109855915
 20
-104034.5937892579
 30
0.0
 11
33699.04109855915
 21
-104020.5937892578
 31
0.0
  0
LINE
  5
9652
330
964D
100
AcDbEntity
  8
标注线
 48
5.0
370
    -2
100
AcDbLine
 10
33699.04109855915
 20
-104084.5937452578
 30
0.0
 11
33699.04109855915
 21
-104098.5937452578
 31
0.0
  0
LINE
  5
9653
330
964D
100
AcDbEntity
  8
标注线
 48
5.0
370
    -2
100
AcDbLine
 10
33699.04109855915
 20
-104048.5937892579
 30
0.0
 11
33699.04109855915
 21
-104070.5937452578
 31
0.0
  0
SOLID
  5
9654
330
964D
100
AcDbEntity
  8
标注线
 48
5.0
100
AcDbTrace
 10
33696.70776522581
 20
-104034.5937892579
 30
0.0
 11
33701.37443189248
 21
-104034.5937892579
 31
0.0
 12
33699.04109855915
 22
-104048.5937892579
 32
0.0
 13
33699.04109855915
 23
-104048.5937892579
 33
0.0
  0
SOLID
  5
9655
330
964D
100
AcDbEntity
  8
标注线
 48
5.0
100
AcDbTrace
 10
33696.70776522581
 20
-104084.5937452578
 30
0.0
 11
33701.37443189248
 21
-104084.5937452578
 31
0.0
 12
33699.04109855915
 22
-104070.5937452578
 32
0.0
 13
33699.04109855915
 23
-104070.5937452578
 33
0.0
  0
MTEXT
  5
9656
330
964D
100
AcDbEntity
  8
标注线
 48
5.0
100
AcDbMText
 10
33699.04109855916
 20
-104059.5937672578
 30
0.0
 40
14.0
 41
0.0
 71
     5
 72
     1
  1
\A1;7/8"
 11
0.0000000000000001
 21
1.0
 31
0.0
 73
     1
 44
1.0
1001
ACAD
1000
MTEXTBEGIN
1070
    73
1070
     1
1070
    44
1040
1.0
1070
    74
1070
     0
1000
MTEXTEND
  0
POINT
  5
9657
330
964D
100
AcDbEntity
  8
DEFPOINTS
 62
     0
 48
5.0
100
AcDbPoint
 10
33693.52252656833
 20
-104048.5937892579
 30
0.0
  0
POINT
  5
9658
330
964D
100
AcDbEntity
  8
DEFPOINTS
 62
     0
 48
5.0
100
AcDbPoint
 10
33693.52252656833
 20
-104070.5937452578
 30
0.0
  0
POINT
  5
9659
330
964D
100
AcDbEntity
  8
DEFPOINTS
 62
     0
 48
5.0
100
AcDbPoint
 10
33699.04109855915
 20
-104070.5937452578
 30
0.0
  0
ENDBLK
  5
965A
330
964D
100
AcDbEntity
  8
0
 48
5.0
100
AcDbBlockEnd
  0
BLOCK
  5
965C
330
965B
100
AcDbEntity
  8
0
 48
5.0
100
AcDbBlockBegin
  2
*D72
 70
     1
 10
0.0
 20
0.0
 30
0.0
  3
*D72
  1

  0
LINE
  5
965D
330
965B
100
AcDbEntity
  8
标注线
 48
5.0
370
    -2
100
AcDbLine
 10
33712.39654456834
 20
-104052.3418132578
 30
0.0
 11
33704.59696187675
 21
-104052.3418132578
 31
0.0
  0
LINE
  5
965E
330
965B
100
AcDbEntity
  8
标注线
 48
5.0
370
    -2
100
AcDbLine
 10
33712.39654456834
 20
-104069.3417792578
 30
0.0
 11
33704.59696187675
 21
-104069.3417792578
 31
0.0
  0
LINE
  5
965F
330
965B
100
AcDbEntity
  8
标注线
 48
5.0
370
    -2
100
AcDbLine
 10
33696.59696187675
 20
-104038.3418132579
 30
0.0
 11
33696.59696187675
 21
-104024.3418132579
 31
0.0
  0
LINE
  5
9660
330
965B
100
AcDbEntity
  8
标注线
 48
5.0
370
    -2
100
AcDbLine
 10
33696.59696187675
 20
-104083.3417792578
 30
0.0
 11
33696.59696187675
 21
-104097.3417792578
 31
0.0
  0
LINE
  5
9661
330
965B
100
AcDbEntity
  8
标注线
 48
5.0
370
    -2
100
AcDbLine
 10
33696.59696187675
 20
-104052.3418132578
 30
0.0
 11
33696.59696187675
 21
-104069.3417792578
 31
0.0
  0
SOLID
  5
9662
330
965B
100
AcDbEntity
  8
标注线
 48
5.0
100
AcDbTrace
 10
33694.26362854341
 20
-104038.3418132579
 30
0.0
 11
33698.93029521008
 21
-104038.3418132579
 31
0.0
 12
33696.59696187675
 22
-104052.3418132578
 32
0.0
 13
33696.59696187675
 23
-104052.3418132578
 33
0.0
  0
SOLID
  5
9663
330
965B
100
AcDbEntity
  8
标注线
 48
5.0
100
AcDbTrace
 10
33694.26362854341
 20
-104083.3417792578
 30
0.0
 11
33698.93029521008
 21
-104083.3417792578
 31
0.0
 12
33696.59696187675
 22
-104069.3417792578
 32
0.0
 13
33696.59696187675
 23
-104069.3417792578
 33
0.0
  0
MTEXT
  5
9664
330
965B
100
AcDbEntity
  8
标注线
 48
5.0
100
AcDbMText
 10
33696.59696187676
 20
-104060.8417962578
 30
0.0
 40
14.0
 41
0.0
 71
     5
 72
     1
  1
\A1;5/8"
 11
0.0000000000000001
 21
1.0
 31
0.0
 73
     1
 44
1.0
1001
ACAD
1000
MTEXTBEGIN
1070
    73
1070
     1
1070
    44
1040
1.0
1070
    74
1070
     0
1000
MTEXTEND
  0
POINT
  5
9665
330
965B
100
AcDbEntity
  8
DEFPOINTS
 62
     0
 48
5.0
100
AcDbPoint
 10
33692.39654456833
 20
-104052.3418132578
 30
0.0
  0
POINT
  5
9666
330
965B
100
AcDbEntity
  8
DEFPOINTS
 62
     0
 48
5.0
100
AcDbPoint
 10
33692.39654456833
 20
-104069.3417792578
 30
0.0
  0
POINT
  5
9667
330
965B
100
AcDbEntity
  8
DEFPOINTS
 62
     0
 48
5.0
100
AcDbPoint
 10
33696.59696187675
 20
-104069.3417792578
 30
0.0
  0
ENDBLK
  5
9668
330
965B
100
AcDbEntity
  8
0
 48
5.0
100
AcDbBlockEnd
  0
BLOCK
  5
966A
330
9669
100
AcDbEntity
  8
0
 48
5.0
100
AcDbBlockBegin
  2
*D73
 70
     1
 10
0.0
 20
0.0
 30
0.0
  3
*D73
  1

  0
LINE
  5
966B
330
9669
100
AcDbEntity
  8
标注线
 48
5.0
370
    -2
100
AcDbLine
 10
33692.39654456833
 20
-104089.3417792578
 30
0.0
 11
33692.39654456833
 21
-104080.8893559959
 31
0.0
  0
LINE
  5
966C
330
9669
100
AcDbEntity
  8
标注线
 48
5.0
370
    -2
100
AcDbLine
 10
33662.64857256834
 20
-104089.3417792578
 30
0.0
 11
33662.64857256834
 21
-104080.8893559959
 31
0.0
  0
LINE
  5
966D
330
9669
100
AcDbEntity
  8
标注线
 48
5.0
370
    -2
100
AcDbLine
 10
33706.39654456834
 20
-104072.8893559959
 30
0.0
 11
33720.39654456834
 21
-104072.8893559959
 31
0.0
  0
LINE
  5
966E
330
9669
100
AcDbEntity
  8
标注线
 48
5.0
370
    -2
100
AcDbLine
 10
33648.64857256834
 20
-104072.8893559959
 30
0.0
 11
33634.64857256834
 21
-104072.8893559959
 31
0.0
  0
LINE
  5
966F
330
9669
100
AcDbEntity
  8
标注线
 48
5.0
370
    -2
100
AcDbLine
 10
33692.39654456833
 20
-104072.8893559959
 30
0.0
 11
33662.64857256834
 21
-104072.8893559959
 31
0.0
  0
SOLID
  5
9670
330
9669
100
AcDbEntity
  8
标注线
 48
5.0
100
AcDbTrace
 10
33706.39654456834
 20
-104070.5560226625
 30
0.0
 11
33706.39654456834
 21
-104075.2226893292
 31
0.0
 12
33692.39654456833
 22
-104072.8893559959
 32
0.0
 13
33692.39654456833
 23
-104072.8893559959
 33
0.0
  0
SOLID
  5
9671
330
9669
100
AcDbEntity
  8
标注线
 48
5.0
100
AcDbTrace
 10
33648.64857256834
 20
-104070.5560226625
 30
0.0
 11
33648.64857256834
 21
-104075.2226893292
 31
0.0
 12
33662.64857256834
 22
-104072.8893559959
 32
0.0
 13
33662.64857256834
 23
-104072.8893559959
 33
0.0
  0
MTEXT
  5
9672
330
9669
100
AcDbEntity
  8
标注线
 48
5.0
100
AcDbMText
 10
33677.52255856834
 20
-104072.8893559959
 30
0.0
 40
14.0
 41
0.0
 71
     5
 72
     1
  1
\A1;1 1/8"
 73
     1
 44
1.0
1001
ACAD
1000
MTEXTBEGIN
1070
    73
1070
     1
1070
    44
1040
1.0
1070
    74
1070
     0
1000
MTEXTEND
  0
POINT
  5
9673
330
9669
100
AcDbEntity
  8
DEFPOINTS
 62
     0
 48
5.0
100
AcDbPoint
 10
33692.39654456833
 20
-104069.3417792578
 30
0.0
  0
POINT
  5
9674
330
9669
100
AcDbEntity
  8
DEFPOINTS
 62
     0
 48
5.0
100
AcDbPoint
 10
33662.64857256834
 20
-104069.3417792578
 30
0.0
  0
POINT
  5
9675
330
9669
100
AcDbEntity
  8
DEFPOINTS
 62
     0
 48
5.0
100
AcDbPoint
 10
33662.64857256834
 20
-104072.8893559959
 30
0.0
  0
ENDBLK
  5
9676
330
9669
100
AcDbEntity
  8
0
 48
5.0
100
AcDbBlockEnd
  0
BLOCK
  5
9678
330
9677
100
AcDbEntity
  8
0
 48
5.0
100
AcDbBlockBegin
  2
*D74
 70
     1
 10
0.0
 20
0.0
 30
0.0
  3
*D74
  1

  0
LINE
  5
9679
330
9677
100
AcDbEntity
  8
标注线
 48
5.0
370
    -2
100
AcDbLine
 10
33713.77449456834
 20
-104029.1700954925
 30
0.0
 11
33706.05312677589
 21
-104029.1700954925
 31
0.0
  0
LINE
  5
967A
330
9677
100
AcDbEntity
  8
标注线
 48
5.0
370
    -2
100
AcDbLine
 10
33712.4662540017
 20
-104038.1705682578
 30
0.0
 11
33706.05312677589
 21
-104038.1705682578
 31
0.0
  0
LINE
  5
967B
330
9677
100
AcDbEntity
  8
标注线
 48
5.0
370
    -2
100
AcDbLine
 10
33698.05312677589
 20
-104015.1700954925
 30
0.0
 11
33698.05312677589
 21
-104001.1700954925
 31
0.0
  0
LINE
  5
967C
330
9677
100
AcDbEntity
  8
标注线
 48
5.0
370
    -2
100
AcDbLine
 10
33698.05312677589
 20
-104052.1705682578
 30
0.0
 11
33698.05312677589
 21
-104066.1705682578
 31
0.0
  0
LINE
  5
967D
330
9677
100
AcDbEntity
  8
标注线
 48
5.0
370
    -2
100
AcDbLine
 10
33698.05312677589
 20
-104029.1700954925
 30
0.0
 11
33698.05312677589
 21
-104038.1705682578
 31
0.0
  0
SOLID
  5
967E
330
9677
100
AcDbEntity
  8
标注线
 48
5.0
100
AcDbTrace
 10
33695.71979344256
 20
-104015.1700954925
 30
0.0
 11
33700.38646010923
 21
-104015.1700954925
 31
0.0
 12
33698.05312677589
 22
-104029.1700954925
 32
0.0
 13
33698.05312677589
 23
-104029.1700954925
 33
0.0
  0
SOLID
  5
967F
330
9677
100
AcDbEntity
  8
标注线
 48
5.0
100
AcDbTrace
 10
33695.71979344256
 20
-104052.1705682578
 30
0.0
 11
33700.38646010923
 21
-104052.1705682578
 31
0.0
 12
33698.05312677589
 22
-104038.1705682578
 32
0.0
 13
33698.05312677589
 23
-104038.1705682578
 33
0.0
  0
MTEXT
  5
9680
330
9677
100
AcDbEntity
  8
标注线
 48
5.0
100
AcDbMText
 10
33698.05312677591
 20
-104033.6703318751
 30
0.0
 40
14.0
 41
0.0
 71
     5
 72
     1
  1
\A1;3/8"
 11
0.0000000000000001
 21
1.0
 31
0.0
 73
     1
 44
1.0
1001
ACAD
1000
MTEXTBEGIN
1070
    73
1070
     1
1070
    44
1040
1.0
1070
    74
1070
     0
1000
MTEXTEND
  0
POINT
  5
9681
330
9677
100
AcDbEntity
  8
DEFPOINTS
 62
     0
 48
5.0
100
AcDbPoint
 10
33693.77449456834
 20
-104029.1700954925
 30
0.0
  0
POINT
  5
9682
330
9677
100
AcDbEntity
  8
DEFPOINTS
 62
     0
 48
5.0
100
AcDbPoint
 10
33692.4662540017
 20
-104038.1705682578
 30
0.0
  0
POINT
  5
9683
330
9677
100
AcDbEntity
  8
DEFPOINTS
 62
     0
 48
5.0
100
AcDbPoint
 10
33698.05312677589
 20
-104038.1705682578
 30
0.0
  0
ENDBLK
  5
9684
330
9677
100
AcDbEntity
  8
0
 48
5.0
100
AcDbBlockEnd
  0
BLOCK
  5
9686
330
9685
100
AcDbEntity
  8
0
 48
5.0
100
AcDbBlockBegin
  2
*D75
 70
     1
 10
0.0
 20
0.0
 30
0.0
  3
*D75
  1

  0
LINE
  5
9687
330
9685
100
AcDbEntity
  8
标注
 62
     0
 48
5.0
370
    -2
100
AcDbLine
 10
33703.32173956833
 20
-104082.2674876299
 30
0.0
 11
33698.1024847792
 21
-104082.2674876299
 31
0.0
  0
LINE
  5
9688
330
9685
100
AcDbEntity
  8
标注
 62
     0
 48
5.0
370
    -2
100
AcDbLine
 10
33703.38079456834
 20
-104103.4800436299
 30
0.0
 11
33698.1024847792
 21
-104103.4800436299
 31
0.0
  0
LINE
  5
9689
330
9685
100
AcDbEntity
  8
标注
 62
     0
 48
5.0
370
    -2
100
AcDbLine
 10
33696.1024847792
 20
-104068.2674876299
 30
0.0
 11
33696.1024847792
 21
-104054.2674876299
 31
0.0
  0
LINE
  5
968A
330
9685
100
AcDbEntity
  8
标注
 62
     0
 48
5.0
370
    -2
100
AcDbLine
 10
33696.1024847792
 20
-104117.4800436299
 30
0.0
 11
33696.1024847792
 21
-104131.4800436299
 31
0.0
  0
LINE
  5
968B
330
9685
100
AcDbEntity
  8
标注
 62
     0
 48
5.0
370
    -2
100
AcDbLine
 10
33696.1024847792
 20
-104082.2674876299
 30
0.0
 11
33696.1024847792
 21
-104103.4800436299
 31
0.0
  0
SOLID
  5
968C
330
9685
100
AcDbEntity
  8
标注
 62
     0
 48
5.0
100
AcDbTrace
 10
33693.76915144587
 20
-104068.2674876299
 30
0.0
 11
33698.43581811254
 21
-104068.2674876299
 31
0.0
 12
33696.1024847792
 22
-104082.2674876299
 32
0.0
 13
33696.1024847792
 23
-104082.2674876299
 33
0.0
  0
SOLID
  5
968D
330
9685
100
AcDbEntity
  8
标注
 62
     0
 48
5.0
100
AcDbTrace
 10
33693.76915144587
 20
-104117.4800436299
 30
0.0
 11
33698.43581811254
 21
-104117.4800436299
 31
0.0
 12
33696.1024847792
 22
-104103.4800436299
 32
0.0
 13
33696.1024847792
 23
-104103.4800436299
 33
0.0
  0
MTEXT
  5
968E
330
9685
100
AcDbEntity
  8
标注
 62
     0
 48
5.0
100
AcDbMText
 10
33696.10248477922
 20
-104092.8737656299
 30
0.0
 40
14.0
 41
0.0
 71
     5
 72
     1
  1
21,2
 11
0.0000000000000001
 21
1.0
 31
0.0
 73
     1
 44
1.0
1001
ACAD
1000
MTEXTBEGIN
1070
    73
1070
     1
1070
    44
1040
1.0
1070
    74
1070
     0
1000
MTEXTEND
  0
POINT
  5
968F
330
9685
100
AcDbEntity
  8
DEFPOINTS
 62
     0
 48
5.0
100
AcDbPoint
 10
33693.32173956833
 20
-104082.2674876299
 30
0.0
  0
POINT
  5
9690
330
9685
100
AcDbEntity
  8
DEFPOINTS
 62
     0
 48
5.0
100
AcDbPoint
 10
33693.38079456834
 20
-104103.4800436299
 30
0.0
  0
POINT
  5
9691
330
9685
100
AcDbEntity
  8
DEFPOINTS
 62
     0
 48
5.0
100
AcDbPoint
 10
33696.1024847792
 20
-104103.4800436299
 30
0.0
  0
ENDBLK
  5
9692
330
9685
100
AcDbEntity
  8
0
 48
5.0
100
AcDbBlockEnd
  0
BLOCK
  5
9694
330
9693
100
AcDbEntity
  8
0
 48
5.0
100
AcDbBlockBegin
  2
*D76
 70
     1
 10
0.0
 20
0.0
 30
0.0
  3
*D76
  1

  0
LINE
  5
9695
330
9693
100
AcDbEntity
  8
标注
 62
     0
 48
5.0
370
    -2
100
AcDbLine
 10
33661.66432256834
 20
-104113.4800436299
 30
0.0
 11
33661.66432256834
 21
-104108.2557923799
 31
0.0
  0
LINE
  5
9696
330
9693
100
AcDbEntity
  8
标注
 62
     0
 48
5.0
370
    -2
100
AcDbLine
 10
33693.38079456834
 20
-104113.4800436299
 30
0.0
 11
33693.38079456834
 21
-104108.2557923799
 31
0.0
  0
LINE
  5
9697
330
9693
100
AcDbEntity
  8
标注
 62
     0
 48
5.0
370
    -2
100
AcDbLine
 10
33647.66432256834
 20
-104106.2557923799
 30
0.0
 11
33633.66432256834
 21
-104106.2557923799
 31
0.0
  0
LINE
  5
9698
330
9693
100
AcDbEntity
  8
标注
 62
     0
 48
5.0
370
    -2
100
AcDbLine
 10
33707.38079456834
 20
-104106.2557923799
 30
0.0
 11
33721.38079456834
 21
-104106.2557923799
 31
0.0
  0
LINE
  5
9699
330
9693
100
AcDbEntity
  8
标注
 62
     0
 48
5.0
370
    -2
100
AcDbLine
 10
33661.66432256834
 20
-104106.2557923799
 30
0.0
 11
33693.38079456834
 21
-104106.2557923799
 31
0.0
  0
SOLID
  5
969A
330
9693
100
AcDbEntity
  8
标注
 62
     0
 48
5.0
100
AcDbTrace
 10
33647.66432256834
 20
-104103.9224590466
 30
0.0
 11
33647.66432256834
 21
-104108.5891257132
 31
0.0
 12
33661.66432256834
 22
-104106.2557923799
 32
0.0
 13
33661.66432256834
 23
-104106.2557923799
 33
0.0
  0
SOLID
  5
969B
330
9693
100
AcDbEntity
  8
标注
 62
     0
 48
5.0
100
AcDbTrace
 10
33707.38079456834
 20
-104103.9224590466
 30
0.0
 11
33707.38079456834
 21
-104108.5891257132
 31
0.0
 12
33693.38079456834
 22
-104106.2557923799
 32
0.0
 13
33693.38079456834
 23
-104106.2557923799
 33
0.0
  0
MTEXT
  5
969C
330
9693
100
AcDbEntity
  8
标注
 62
     0
 48
5.0
100
AcDbMText
 10
33745.12523901278
 20
-104106.2557923799
 30
0.0
 40
14.0
 41
0.0
 71
     5
 72
     1
  1
31,7
 73
     1
 44
1.0
1001
ACAD
1000
MTEXTBEGIN
1070
    73
1070
     1
1070
    44
1040
1.0
1070
    74
1070
     0
1000
MTEXTEND
  0
POINT
  5
969D
330
9693
100
AcDbEntity
  8
DEFPOINTS
 62
     0
 48
5.0
100
AcDbPoint
 10
33661.66432256834
 20
-104103.4800436299
 30
0.0
  0
POINT
  5
969E
330
9693
100
AcDbEntity
  8
DEFPOINTS
 62
     0
 48
5.0
100
AcDbPoint
 10
33693.38079456834
 20
-104103.4800436299
 30
0.0
  0
POINT
  5
969F
330
9693
100
AcDbEntity
  8
DEFPOINTS
 62
     0
 48
5.0
100
AcDbPoint
 10
33693.38079456834
 20
-104106.2557923799
 30
0.0
  0
ENDBLK
  5
96A0
330
9693
100
AcDbEntity
  8
0
 48
5.0
100
AcDbBlockEnd
  0
BLOCK
  5
96A2
330
96A1
100
AcDbEntity
  8
0
 48
5.0
100
AcDbBlockBegin
  2
*D77
 70
     1
 10
0.0
 20
0.0
 30
0.0
  3
*D77
  1

  0
LINE
  5
96A3
330
96A1
100
AcDbEntity
  8
标注线
 48
5.0
370
    -2
100
AcDbLine
 10
33661.27062256834
 20
-104090.5937452579
 30
0.0
 11
33661.27062256834
 21
-104083.3485601047
 31
0.0
  0
LINE
  5
96A4
330
96A1
100
AcDbEntity
  8
标注线
 48
5.0
370
    -2
100
AcDbLine
 10
33693.77449456834
 20
-104090.5937452579
 30
0.0
 11
33693.77449456834
 21
-104083.3485601047
 31
0.0
  0
LINE
  5
96A5
330
96A1
100
AcDbEntity
  8
标注线
 48
5.0
370
    -2
100
AcDbLine
 10
33647.27062256834
 20
-104075.3485601046
 30
0.0
 11
33633.27062256834
 21
-104075.3485601046
 31
0.0
  0
LINE
  5
96A6
330
96A1
100
AcDbEntity
  8
标注线
 48
5.0
370
    -2
100
AcDbLine
 10
33707.77449456834
 20
-104075.3485601046
 30
0.0
 11
33721.77449456834
 21
-104075.3485601046
 31
0.0
  0
LINE
  5
96A7
330
96A1
100
AcDbEntity
  8
标注线
 48
5.0
370
    -2
100
AcDbLine
 10
33661.27062256834
 20
-104075.3485601046
 30
0.0
 11
33693.77449456834
 21
-104075.3485601046
 31
0.0
  0
SOLID
  5
96A8
330
96A1
100
AcDbEntity
  8
标注线
 48
5.0
100
AcDbTrace
 10
33647.27062256834
 20
-104073.0152267713
 30
0.0
 11
33647.27062256834
 21
-104077.681893438
 31
0.0
 12
33661.27062256834
 22
-104075.3485601046
 32
0.0
 13
33661.27062256834
 23
-104075.3485601046
 33
0.0
  0
SOLID
  5
96A9
330
96A1
100
AcDbEntity
  8
标注线
 48
5.0
100
AcDbTrace
 10
33707.77449456834
 20
-104073.0152267713
 30
0.0
 11
33707.77449456834
 21
-104077.681893438
 31
0.0
 12
33693.77449456834
 22
-104075.3485601046
 32
0.0
 13
33693.77449456834
 23
-104075.3485601046
 33
0.0
  0
MTEXT
  5
96AA
330
96A1
100
AcDbEntity
  8
标注线
 48
5.0
100
AcDbMText
 10
33757.69671679056
 20
-104075.3485601046
 30
0.0
 40
14.0
 41
0.0
 71
     5
 72
     1
  1
\A1;1 1/4"
 73
     1
 44
1.0
1001
ACAD
1000
MTEXTBEGIN
1070
    73
1070
     1
1070
    44
1040
1.0
1070
    74
1070
     0
1000
MTEXTEND
  0
POINT
  5
96AB
330
96A1
100
AcDbEntity
  8
DEFPOINTS
 62
     0
 48
5.0
100
AcDbPoint
 10
33661.27062256834
 20
-104070.5937452578
 30
0.0
  0
POINT
  5
96AC
330
96A1
100
AcDbEntity
  8
DEFPOINTS
 62
     0
 48
5.0
100
AcDbPoint
 10
33693.77449456834
 20
-104070.5937452578
 30
0.0
  0
POINT
  5
96AD
330
96A1
100
AcDbEntity
  8
DEFPOINTS
 62
     0
 48
5.0
100
AcDbPoint
 10
33693.77449456834
 20
-104075.3485601046
 30
0.0
  0
ENDBLK
  5
96AE
330
96A1
100
AcDbEntity
  8
0
 48
5.0
100
AcDbBlockEnd
  0
BLOCK
  5
977D
330
977C
100
AcDbEntity
  8
0
100
AcDbBlockBegin
  2
*D79
 70
     1
 10
0.0
 20
0.0
 30
0.0
  3
*D79
  1

  0
LINE
  5
98D8
330
977C
100
AcDbEntity
  8
标注线
 48
5.0
370
    -2
100
AcDbLine
 10
1669.611826958104
 20
172.2198422156519
 30
0.0
 11
1670.558118996062
 21
172.2198422156519
 31
0.0
  0
LINE
  5
98D9
330
977C
100
AcDbEntity
  8
标注线
 48
5.0
370
    -2
100
AcDbLine
 10
1668.303586391469
 20
166.7193694503087
 30
0.0
 11
1670.558118996062
 21
166.7193694503087
 31
0.0
  0
LINE
  5
98DA
330
977C
100
AcDbEntity
  8
标注线
 48
5.0
370
    -2
100
AcDbLine
 10
1670.238118996062
 20
171.5698422156519
 30
0.0
 11
1670.238118996062
 21
170.8196225780865
 31
0.0
  0
LINE
  5
98DB
330
977C
100
AcDbEntity
  8
标注线
 48
5.0
370
    -2
100
AcDbLine
 10
1670.238118996062
 20
167.3693694503087
 30
0.0
 11
1670.238118996062
 21
167.9579240787686
 31
0.0
  0
MTEXT
  5
98DC
330
977C
100
AcDbEntity
  8
标注线
 48
5.0
100
AcDbMText
 10
1670.238118996062
 20
169.3887733284278
 30
0.0
 40
0.65
 41
0.0
 71
     5
 72
     1
  1
\A1;5 1/2"
 11
0.0000000000000001
 21
1.0
 31
0.0
 73
     1
 44
1.0
1001
ACAD
1000
MTEXTBEGIN
1070
    73
1070
     1
1070
    44
1040
1.0
1070
    74
1070
     0
1000
MTEXTEND
  0
SOLID
  5
98DD
330
977C
100
AcDbEntity
  8
标注线
 48
5.0
100
AcDbTrace
 10
1670.129785662728
 20
171.5698422156519
 30
0.0
 11
1670.346452329395
 21
171.5698422156519
 31
0.0
 12
1670.238118996062
 22
172.2198422156519
 32
0.0
 13
1670.238118996062
 23
172.2198422156519
 33
0.0
  0
SOLID
  5
98DE
330
977C
100
AcDbEntity
  8
标注线
 48
5.0
100
AcDbTrace
 10
1670.129785662728
 20
167.3693694503087
 30
0.0
 11
1670.346452329395
 21
167.3693694503087
 31
0.0
 12
1670.238118996062
 22
166.7193694503087
 32
0.0
 13
1670.238118996062
 23
166.7193694503087
 33
0.0
  0
POINT
  5
98DF
330
977C
100
AcDbEntity
  8
DEFPOINTS
 62
     0
 48
5.0
100
AcDbPoint
 10
1668.731826958104
 20
172.2198422156519
 30
0.0
  0
POINT
  5
98E0
330
977C
100
AcDbEntity
  8
DEFPOINTS
 62
     0
 48
5.0
100
AcDbPoint
 10
1667.423586391469
 20
166.7193694503087
 30
0.0
  0
POINT
  5
98E1
330
977C
100
AcDbEntity
  8
DEFPOINTS
 62
     0
 48
5.0
100
AcDbPoint
 10
1670.238118996062
 20
166.7193694503087
 30
0.0
  0
ENDBLK
  5
977E
330
977C
100
AcDbEntity
  8
0
100
AcDbBlockEnd
  0
BLOCK
  5
978B
330
978A
100
AcDbEntity
  8
0
100
AcDbBlockBegin
  2
*D80
 70
     1
 10
0.0
 20
0.0
 30
0.0
  3
*D80
  1

  0
LINE
  5
98F3
330
978A
100
AcDbEntity
  8
标注线
 48
5.0
370
    -2
100
AcDbLine
 10
1669.159071958099
 20
116.079908943773
 30
0.0
 11
1671.379817168981
 21
116.079908943773
 31
0.0
  0
LINE
  5
98F4
330
978A
100
AcDbEntity
  8
标注线
 48
5.0
370
    -2
100
AcDbLine
 10
1669.218126958104
 20
94.86735294377442
 30
0.0
 11
1671.379817168981
 21
94.86735294377442
 31
0.0
  0
LINE
  5
98F5
330
978A
100
AcDbEntity
  8
标注线
 48
5.0
370
    -2
100
AcDbLine
 10
1671.059817168981
 20
115.429908943773
 30
0.0
 11
1671.059817168981
 21
107.1625293066659
 31
0.0
  0
LINE
  5
98F6
330
978A
100
AcDbEntity
  8
标注线
 48
5.0
370
    -2
100
AcDbLine
 10
1671.059817168981
 20
95.51735294377442
 30
0.0
 11
1671.059817168981
 21
103.7847325808815
 31
0.0
  0
MTEXT
  5
98F7
330
978A
100
AcDbEntity
  8
标注线
 48
5.0
100
AcDbMText
 10
1671.059817168981
 20
105.4736309437739
 30
0.0
 40
0.65
 41
0.0
 71
     5
 72
     1
  1
\A1;21 1/4"
 11
0.0000000000000001
 21
1.0
 31
0.0
 73
     1
 44
1.0
1001
ACAD
1000
MTEXTBEGIN
1070
    73
1070
     1
1070
    44
1040
1.0
1070
    74
1070
     0
1000
MTEXTEND
  0
SOLID
  5
98F8
330
978A
100
AcDbEntity
  8
标注线
 48
5.0
100
AcDbTrace
 10
1670.951483835648
 20
115.429908943773
 30
0.0
 11
1671.168150502315
 21
115.429908943773
 31
0.0
 12
1671.059817168981
 22
116.079908943773
 32
0.0
 13
1671.059817168981
 23
116.079908943773
 33
0.0
  0
SOLID
  5
98F9
330
978A
100
AcDbEntity
  8
标注线
 48
5.0
100
AcDbTrace
 10
1670.951483835648
 20
95.51735294377442
 30
0.0
 11
1671.168150502315
 21
95.51735294377442
 31
0.0
 12
1671.059817168981
 22
94.86735294377442
 32
0.0
 13
1671.059817168981
 23
94.86735294377442
 33
0.0
  0
POINT
  5
98FA
330
978A
100
AcDbEntity
  8
DEFPOINTS
 62
     0
 48
5.0
100
AcDbPoint
 10
1668.279071958098
 20
116.079908943773
 30
0.0
  0
POINT
  5
98FB
330
978A
100
AcDbEntity
  8
DEFPOINTS
 62
     0
 48
5.0
100
AcDbPoint
 10
1668.338126958104
 20
94.86735294377442
 30
0.0
  0
POINT
  5
98FC
330
978A
100
AcDbEntity
  8
DEFPOINTS
 62
     0
 48
5.0
100
AcDbPoint
 10
1671.059817168981
 20
94.86735294377442
 30
0.0
  0
ENDBLK
  5
978C
330
978A
100
AcDbEntity
  8
0
100
AcDbBlockEnd
  0
BLOCK
  5
9799
330
9798
100
AcDbEntity
  8
0
100
AcDbBlockBegin
  2
*D81
 70
     1
 10
0.0
 20
0.0
 30
0.0
  3
*D81
  1

  0
LINE
  5
98FD
330
9798
100
AcDbEntity
  8
标注线
 48
5.0
370
    -2
100
AcDbLine
 10
1636.621654958104
 20
93.98735294377443
 30
0.0
 11
1636.621654958104
 21
91.77160419376869
 31
0.0
  0
LINE
  5
98FE
330
9798
100
AcDbEntity
  8
标注线
 48
5.0
370
    -2
100
AcDbLine
 10
1668.338126958104
 20
93.98735294377443
 30
0.0
 11
1668.338126958104
 21
91.77160419376869
 31
0.0
  0
LINE
  5
98FF
330
9798
100
AcDbEntity
  8
标注线
 48
5.0
370
    -2
100
AcDbLine
 10
1637.271654958104
 20
92.09160419376869
 30
0.0
 11
1650.79675657884
 21
92.09160419376869
 31
0.0
  0
LINE
  5
9900
330
9798
100
AcDbEntity
  8
标注线
 48
5.0
370
    -2
100
AcDbLine
 10
1667.688126958104
 20
92.09160419376869
 30
0.0
 11
1654.163025337367
 21
92.09160419376869
 31
0.0
  0
SOLID
  5
9901
330
9798
100
AcDbEntity
  8
标注线
 48
5.0
100
AcDbTrace
 10
1637.271654958104
 20
92.19993752710202
 30
0.0
 11
1637.271654958104
 21
91.98327086043535
 31
0.0
 12
1636.621654958104
 22
92.09160419376869
 32
0.0
 13
1636.621654958104
 23
92.09160419376869
 33
0.0
  0
SOLID
  5
9902
330
9798
100
AcDbEntity
  8
标注线
 48
5.0
100
AcDbTrace
 10
1667.688126958104
 20
92.19993752710202
 30
0.0
 11
1667.688126958104
 21
91.98327086043535
 31
0.0
 12
1668.338126958104
 22
92.09160419376869
 32
0.0
 13
1668.338126958104
 23
92.09160419376869
 33
0.0
  0
MTEXT
  5
9903
330
9798
100
AcDbEntity
  8
标注线
 48
5.0
100
AcDbMText
 10
1652.479890958104
 20
92.09160419376869
 30
0.0
 40
0.65
 41
0.0
 71
     5
 72
     1
  1
\A1;31 3/4"
 73
     1
 44
1.0
1001
ACAD
1000
MTEXTBEGIN
1070
    73
1070
     1
1070
    44
1040
1.0
1070
    74
1070
     0
1000
MTEXTEND
  0
POINT
  5
9904
330
9798
100
AcDbEntity
  8
DEFPOINTS
 62
     0
 48
5.0
100
AcDbPoint
 10
1636.621654958104
 20
94.86735294377442
 30
0.0
  0
POINT
  5
9905
330
9798
100
AcDbEntity
  8
DEFPOINTS
 62
     0
 48
5.0
100
AcDbPoint
 10
1668.338126958104
 20
94.86735294377442
 30
0.0
  0
POINT
  5
9906
330
9798
100
AcDbEntity
  8
DEFPOINTS
 62
     0
 48
5.0
100
AcDbPoint
 10
1668.338126958104
 20
92.09160419376869
 30
0.0
  0
ENDBLK
  5
979A
330
9798
100
AcDbEntity
  8
0
100
AcDbBlockEnd
  0
BLOCK
  5
97A7
330
97A6
100
AcDbEntity
  8
0
100
AcDbBlockBegin
  2
*D82
 70
     1
 10
0.0
 20
0.0
 30
0.0
  3
*D82
  1

  0
LINE
  5
9870
330
97A6
100
AcDbEntity
  8
标注线
 48
5.0
370
    -2
100
AcDbLine
 10
1669.3598589581
 20
152.796148450275
 30
0.0
 11
1674.318430948926
 21
152.796148450275
 31
0.0
  0
LINE
  5
9871
330
97A6
100
AcDbEntity
  8
标注线
 48
5.0
370
    -2
100
AcDbLine
 10
1669.3598589581
 20
130.7961924502754
 30
0.0
 11
1674.318430948926
 21
130.7961924502754
 31
0.0
  0
LINE
  5
9872
330
97A6
100
AcDbEntity
  8
标注线
 48
5.0
370
    -2
100
AcDbLine
 10
1673.998430948926
 20
152.1461484502751
 30
0.0
 11
1673.998430948926
 21
142.7277700409983
 31
0.0
  0
LINE
  5
9873
330
97A6
100
AcDbEntity
  8
标注线
 48
5.0
370
    -2
100
AcDbLine
 10
1673.998430948926
 20
131.4461924502754
 30
0.0
 11
1673.998430948926
 21
140.8645708595521
 31
0.0
  0
MTEXT
  5
9874
330
97A6
100
AcDbEntity
  8
标注线
 48
5.0
100
AcDbMText
 10
1673.998430948926
 20
141.7961704502755
 30
0.0
 40
0.65
 41
0.0
 71
     5
 72
     1
  1
\A1;22"
 11
0.0000000000000001
 21
1.0
 31
0.0
 73
     1
 44
1.0
1001
ACAD
1000
MTEXTBEGIN
1070
    73
1070
     1
1070
    44
1040
1.0
1070
    74
1070
     0
1000
MTEXTEND
  0
SOLID
  5
9875
330
97A6
100
AcDbEntity
  8
标注线
 48
5.0
100
AcDbTrace
 10
1673.890097615593
 20
152.1461484502751
 30
0.0
 11
1674.106764282259
 21
152.1461484502751
 31
0.0
 12
1673.998430948926
 22
152.796148450275
 32
0.0
 13
1673.998430948926
 23
152.796148450275
 33
0.0
  0
SOLID
  5
9876
330
97A6
100
AcDbEntity
  8
标注线
 48
5.0
100
AcDbTrace
 10
1673.890097615593
 20
131.4461924502754
 30
0.0
 11
1674.106764282259
 21
131.4461924502754
 31
0.0
 12
1673.998430948926
 22
130.7961924502754
 32
0.0
 13
1673.998430948926
 23
130.7961924502754
 33
0.0
  0
POINT
  5
9877
330
97A6
100
AcDbEntity
  8
DEFPOINTS
 62
     0
 48
5.0
100
AcDbPoint
 10
1668.4798589581
 20
152.796148450275
 30
0.0
  0
POINT
  5
9878
330
97A6
100
AcDbEntity
  8
DEFPOINTS
 62
     0
 48
5.0
100
AcDbPoint
 10
1668.4798589581
 20
130.7961924502754
 30
0.0
  0
POINT
  5
9879
330
97A6
100
AcDbEntity
  8
DEFPOINTS
 62
     0
 48
5.0
100
AcDbPoint
 10
1673.998430948926
 20
130.7961924502754
 30
0.0
  0
ENDBLK
  5
97A8
330
97A6
100
AcDbEntity
  8
0
100
AcDbBlockEnd
  0
BLOCK
  5
97B5
330
97B4
100
AcDbEntity
  8
0
100
AcDbBlockBegin
  2
*D83
 70
     1
 10
0.0
 20
0.0
 30
0.0
  3
*D83
  1

  0
LINE
  5
9866
330
97B4
100
AcDbEntity
  8
标注线
 48
5.0
370
    -2
100
AcDbLine
 10
1668.233876958102
 20
149.0481244502746
 30
0.0
 11
1671.87429426653
 21
149.0481244502746
 31
0.0
  0
LINE
  5
9867
330
97B4
100
AcDbEntity
  8
标注线
 48
5.0
370
    -2
100
AcDbLine
 10
1668.233876958102
 20
132.0481584502861
 30
0.0
 11
1671.87429426653
 21
132.0481584502861
 31
0.0
  0
LINE
  5
9868
330
97B4
100
AcDbEntity
  8
标注线
 48
5.0
370
    -2
100
AcDbLine
 10
1671.55429426653
 20
148.3981244502746
 30
0.0
 11
1671.55429426653
 21
141.4436052974836
 31
0.0
  0
LINE
  5
9869
330
97B4
100
AcDbEntity
  8
标注线
 48
5.0
370
    -2
100
AcDbLine
 10
1671.55429426653
 20
132.6981584502861
 30
0.0
 11
1671.55429426653
 21
139.6526776030771
 31
0.0
  0
MTEXT
  5
986A
330
97B4
100
AcDbEntity
  8
标注线
 48
5.0
100
AcDbMText
 10
1671.55429426653
 20
140.5481414502806
 30
0.0
 40
0.65
 41
0.0
 71
     5
 72
     1
  1
\A1;17"
 11
0.0000000000000001
 21
1.0
 31
0.0
 73
     1
 44
1.0
1001
ACAD
1000
MTEXTBEGIN
1070
    73
1070
     1
1070
    44
1040
1.0
1070
    74
1070
     0
1000
MTEXTEND
  0
SOLID
  5
986B
330
97B4
100
AcDbEntity
  8
标注线
 48
5.0
100
AcDbTrace
 10
1671.445960933197
 20
148.3981244502746
 30
0.0
 11
1671.662627599864
 21
148.3981244502746
 31
0.0
 12
1671.55429426653
 22
149.0481244502746
 32
0.0
 13
1671.55429426653
 23
149.0481244502746
 33
0.0
  0
SOLID
  5
986C
330
97B4
100
AcDbEntity
  8
标注线
 48
5.0
100
AcDbTrace
 10
1671.445960933197
 20
132.6981584502861
 30
0.0
 11
1671.662627599864
 21
132.6981584502861
 31
0.0
 12
1671.55429426653
 22
132.0481584502861
 32
0.0
 13
1671.55429426653
 23
132.0481584502861
 33
0.0
  0
POINT
  5
986D
330
97B4
100
AcDbEntity
  8
DEFPOINTS
 62
     0
 48
5.0
100
AcDbPoint
 10
1667.353876958102
 20
149.0481244502746
 30
0.0
  0
POINT
  5
986E
330
97B4
100
AcDbEntity
  8
DEFPOINTS
 62
     0
 48
5.0
100
AcDbPoint
 10
1667.353876958102
 20
132.0481584502861
 30
0.0
  0
POINT
  5
986F
330
97B4
100
AcDbEntity
  8
DEFPOINTS
 62
     0
 48
5.0
100
AcDbPoint
 10
1671.55429426653
 20
132.0481584502861
 30
0.0
  0
ENDBLK
  5
97B6
330
97B4
100
AcDbEntity
  8
0
100
AcDbBlockEnd
  0
BLOCK
  5
97C3
330
97C2
100
AcDbEntity
  8
0
100
AcDbBlockBegin
  2
*D84
 70
     1
 10
0.0
 20
0.0
 30
0.0
  3
*D84
  1

  0
LINE
  5
983E
330
97C2
100
AcDbEntity
  8
标注线
 48
5.0
370
    -2
100
AcDbLine
 10
1667.353876958102
 20
131.1681584502861
 30
0.0
 11
1667.353876958102
 21
128.1805817122449
 31
0.0
  0
LINE
  5
983F
330
97C2
100
AcDbEntity
  8
标注线
 48
5.0
370
    -2
100
AcDbLine
 10
1637.605904958105
 20
131.1681584502861
 30
0.0
 11
1637.605904958105
 21
128.1805817122449
 31
0.0
  0
LINE
  5
9840
330
97C2
100
AcDbEntity
  8
标注线
 48
5.0
370
    -2
100
AcDbLine
 10
1666.703876958102
 20
128.5005817122449
 30
0.0
 11
1654.168789320996
 21
128.5005817122449
 31
0.0
  0
LINE
  5
9841
330
97C2
100
AcDbEntity
  8
标注线
 48
5.0
370
    -2
100
AcDbLine
 10
1638.255904958105
 20
128.5005817122449
 30
0.0
 11
1650.790992595212
 21
128.5005817122449
 31
0.0
  0
MTEXT
  5
9842
330
97C2
100
AcDbEntity
  8
标注线
 48
5.0
100
AcDbMText
 10
1652.479890958104
 20
128.5005817122449
 30
0.0
 40
0.65
 41
0.0
 71
     5
 72
     1
  1
\A1;29 3/4"
 73
     1
 44
1.0
1001
ACAD
1000
MTEXTBEGIN
1070
    73
1070
     1
1070
    44
1040
1.0
1070
    74
1070
     0
1000
MTEXTEND
  0
SOLID
  5
9843
330
97C2
100
AcDbEntity
  8
标注线
 48
5.0
100
AcDbTrace
 10
1666.703876958102
 20
128.6089150455782
 30
0.0
 11
1666.703876958102
 21
128.3922483789115
 31
0.0
 12
1667.353876958102
 22
128.5005817122449
 32
0.0
 13
1667.353876958102
 23
128.5005817122449
 33
0.0
  0
SOLID
  5
9844
330
97C2
100
AcDbEntity
  8
标注线
 48
5.0
100
AcDbTrace
 10
1638.255904958105
 20
128.6089150455782
 30
0.0
 11
1638.255904958105
 21
128.3922483789115
 31
0.0
 12
1637.605904958105
 22
128.5005817122449
 32
0.0
 13
1637.605904958105
 23
128.5005817122449
 33
0.0
  0
POINT
  5
9845
330
97C2
100
AcDbEntity
  8
DEFPOINTS
 62
     0
 48
5.0
100
AcDbPoint
 10
1667.353876958102
 20
132.0481584502861
 30
0.0
  0
POINT
  5
9846
330
97C2
100
AcDbEntity
  8
DEFPOINTS
 62
     0
 48
5.0
100
AcDbPoint
 10
1637.605904958105
 20
132.0481584502861
 30
0.0
  0
POINT
  5
9847
330
97C2
100
AcDbEntity
  8
DEFPOINTS
 62
     0
 48
5.0
100
AcDbPoint
 10
1637.605904958105
 20
128.5005817122449
 30
0.0
  0
ENDBLK
  5
97C4
330
97C2
100
AcDbEntity
  8
0
100
AcDbBlockEnd
  0
BLOCK
  5
97D1
330
97D0
100
AcDbEntity
  8
0
100
AcDbBlockBegin
  2
*D85
 70
     1
 10
0.0
 20
0.0
 30
0.0
  3
*D85
  1

  0
LINE
  5
9834
330
97D0
100
AcDbEntity
  8
标注线
 48
5.0
370
    -2
100
AcDbLine
 10
1636.227954958103
 20
129.9161924502754
 30
0.0
 11
1636.227954958103
 21
125.7213776034705
 31
0.0
  0
LINE
  5
9835
330
97D0
100
AcDbEntity
  8
标注线
 48
5.0
370
    -2
100
AcDbLine
 10
1668.731826958104
 20
129.9161924502754
 30
0.0
 11
1668.731826958104
 21
125.7213776034705
 31
0.0
  0
LINE
  5
9836
330
97D0
100
AcDbEntity
  8
标注线
 48
5.0
370
    -2
100
AcDbLine
 10
1636.877954958103
 20
126.0413776034704
 30
0.0
 11
1650.79675657884
 21
126.0413776034704
 31
0.0
  0
LINE
  5
9837
330
97D0
100
AcDbEntity
  8
标注线
 48
5.0
370
    -2
100
AcDbLine
 10
1668.081826958104
 20
126.0413776034704
 30
0.0
 11
1654.163025337367
 21
126.0413776034704
 31
0.0
  0
SOLID
  5
9838
330
97D0
100
AcDbEntity
  8
标注线
 48
5.0
100
AcDbTrace
 10
1636.877954958103
 20
126.1497109368038
 30
0.0
 11
1636.877954958103
 21
125.9330442701371
 31
0.0
 12
1636.227954958103
 22
126.0413776034704
 32
0.0
 13
1636.227954958103
 23
126.0413776034704
 33
0.0
  0
SOLID
  5
9839
330
97D0
100
AcDbEntity
  8
标注线
 48
5.0
100
AcDbTrace
 10
1668.081826958104
 20
126.1497109368038
 30
0.0
 11
1668.081826958104
 21
125.9330442701371
 31
0.0
 12
1668.731826958104
 22
126.0413776034704
 32
0.0
 13
1668.731826958104
 23
126.0413776034704
 33
0.0
  0
MTEXT
  5
983A
330
97D0
100
AcDbEntity
  8
标注线
 48
5.0
100
AcDbMText
 10
1652.479890958104
 20
126.0413776034704
 30
0.0
 40
0.65
 41
0.0
 71
     5
 72
     1
  1
\A1;32 1/2"
 73
     1
 44
1.0
1001
ACAD
1000
MTEXTBEGIN
1070
    73
1070
     1
1070
    44
1040
1.0
1070
    74
1070
     0
1000
MTEXTEND
  0
POINT
  5
983B
330
97D0
100
AcDbEntity
  8
DEFPOINTS
 62
     0
 48
5.0
100
AcDbPoint
 10
1636.227954958103
 20
130.7961924502754
 30
0.0
  0
POINT
  5
983C
330
97D0
100
AcDbEntity
  8
DEFPOINTS
 62
     0
 48
5.0
100
AcDbPoint
 10
1668.731826958104
 20
130.7961924502754
 30
0.0
  0
POINT
  5
983D
330
97D0
100
AcDbEntity
  8
DEFPOINTS
 62
     0
 48
5.0
100
AcDbPoint
 10
1668.731826958104
 20
126.0413776034704
 30
0.0
  0
ENDBLK
  5
97D2
330
97D0
100
AcDbEntity
  8
0
100
AcDbBlockEnd
  0
ENDSEC
  0
SECTION
  2
ENTITIES
  0
DIMENSION
  5
9719
330
5F6E
100
AcDbEntity
  8
标注线
 48
5.0
100
AcDbDimension
  2
*D82
 10
1673.998430948926
 20
130.7961924502754
 30
0.0
 11
1673.998430948926
 21
141.7961704502755
 31
0.0
 70
   160
 71
     5
 42
21.99995599999966
  3
副本Standard$0
100
AcDbAlignedDimension
 13
1668.4798589581
 23
152.796148450275
 33
0.0
 14
1668.4798589581
 24
130.7961924502754
 34
0.0
 50
90.0
100
AcDbRotatedDimension
1001
ACAD
1000
DSTYLE
1002
{
1070
     3
1000
"
1070
    41
1040
0.65
1070
    42
1040
0.88
1070
    43
1040
0.015
1070
    44
1040
0.32
1070
    79
1070
     0
1070
   140
1040
0.65
1070
   147
1040
0.3
1070
   171
1070
     1
1070
   179
1070
     0
1070
   271
1070
     3
1070
   272
1070
     3
1070
   273
1070
     2
1070
   274
1070
     1
1070
   276
1070
     2
1070
   277
1070
     5
1070
   278
1070
    46
1070
   279
1070
     2
1070
   284
1070
     8
1070
   285
1070
     8
1070
   286
1070
     8
1002
}
  0
DIMENSION
  5
971A
330
5F6E
100
AcDbEntity
  8
标注线
 48
5.0
100
AcDbDimension
  2
*D83
 10
1671.55429426653
 20
132.0481584502861
 30
0.0
 11
1671.55429426653
 21
140.5481414502806
 31
0.0
 70
   160
 71
     5
 42
16.99996599998849
  3
副本Standard$0
100
AcDbAlignedDimension
 13
1667.353876958102
 23
149.0481244502746
 33
0.0
 14
1667.353876958102
 24
132.0481584502861
 34
0.0
 50
90.0
100
AcDbRotatedDimension
1001
ACAD
1000
DSTYLE
1002
{
1070
     3
1000
"
1070
    41
1040
0.65
1070
    42
1040
0.88
1070
    43
1040
0.015
1070
    44
1040
0.32
1070
    79
1070
     0
1070
   140
1040
0.65
1070
   147
1040
0.3
1070
   171
1070
     1
1070
   179
1070
     0
1070
   271
1070
     3
1070
   272
1070
     3
1070
   273
1070
     2
1070
   274
1070
     1
1070
   276
1070
     2
1070
   277
1070
     5
1070
   278
1070
    46
1070
   279
1070
     2
1070
   284
1070
     8
1070
   285
1070
     8
1070
   286
1070
     8
1002
}
  0
DIMENSION
  5
971B
330
5F6E
100
AcDbEntity
  8
标注线
 48
5.0
100
AcDbDimension
  2
*D84
 10
1637.605904958105
 20
128.5005817122449
 30
0.0
 11
1652.479890958104
 21
128.5005817122449
 31
0.0
 70
   160
 71
     5
 42
29.74797199999739
  3
副本Standard$0
100
AcDbAlignedDimension
 13
1667.353876958102
 23
132.0481584502861
 33
0.0
 14
1637.605904958105
 24
132.0481584502861
 34
0.0
100
AcDbRotatedDimension
1001
ACAD
1000
DSTYLE
1002
{
1070
     3
1000
"
1070
    41
1040
0.65
1070
    42
1040
0.88
1070
    43
1040
0.015
1070
    44
1040
0.32
1070
    79
1070
     0
1070
   140
1040
0.65
1070
   147
1040
0.3
1070
   171
1070
     1
1070
   179
1070
     0
1070
   271
1070
     3
1070
   272
1070
     3
1070
   273
1070
     2
1070
   274
1070
     1
1070
   276
1070
     2
1070
   277
1070
     5
1070
   278
1070
    46
1070
   279
1070
     2
1070
   284
1070
     8
1070
   285
1070
     8
1070
   286
1070
     8
1002
}
  0
LINE
  5
971C
330
5F6E
100
AcDbEntity
  8
0
100
AcDbLine
 10
1636.227954958103
 20
152.796148450275
 30
0.0
 11
1668.731826958104
 21
152.796148450275
 31
0.0
  0
CIRCLE
  5
971D
330
5F6E
100
AcDbEntity
  8
0
100
AcDbCircle
 10
1652.479890958104
 20
150.5481214502809
 30
0.0
 40
0.6889750000000001
  0
LINE
  5
971E
330
5F6E
100
AcDbEntity
  8
中心线
 48
1.5
100
AcDbLine
 10
1650.89514592996
 20
150.5481214502809
 30
0.0
 11
1654.195713528129
 21
150.5481214502809
 31
0.0
  0
LINE
  5
971F
330
5F6E
100
AcDbEntity
  8
虚线
 48
0.2
100
AcDbLine
 10
1637.321948833105
 20
152.3237084502773
 30
0.0
 11
1667.637833083103
 21
152.3237084502773
 31
0.0
  0
LINE
  5
9720
330
5F6E
100
AcDbEntity
  8
虚线
 48
0.2
100
AcDbLine
 10
1636.699902833108
 20
132.1032764502754
 30
0.0
 11
1636.699902833101
 21
151.5756784502894
 31
0.0
  0
LINE
  5
9721
330
5F6E
100
AcDbEntity
  8
虚线
 48
0.2
100
AcDbLine
 10
1637.321948833105
 20
131.2686324502877
 30
0.0
 11
1667.637833083103
 21
131.2686324502877
 31
0.0
  0
LINE
  5
9722
330
5F6E
100
AcDbEntity
  8
虚线
 48
0.2
100
AcDbLine
 10
1637.321948833105
 20
131.7410724502854
 30
0.0
 11
1667.637833083096
 21
131.7410724502854
 31
0.0
  0
LINE
  5
9723
330
5F6E
100
AcDbEntity
  8
虚线
 48
0.2
100
AcDbLine
 10
1637.172342833106
 20
132.1032764502754
 30
0.0
 11
1637.172342833099
 21
151.5756784502894
 31
0.0
  0
LINE
  5
9724
330
5F6E
100
AcDbEntity
  8
虚线
 48
0.2
100
AcDbLine
 10
1637.321948833105
 20
151.8512684502796
 30
0.0
 11
1667.637833083103
 21
151.8512684502796
 31
0.0
  0
LINE
  5
9725
330
5F6E
100
AcDbEntity
  8
虚线
 48
3.5
100
AcDbLine
 10
1637.321948833105
 20
131.2686324502877
 30
0.0
 11
1637.321948833105
 21
131.7410724502854
 31
0.0
  0
LINE
  5
9726
330
5F6E
100
AcDbEntity
  8
虚线
 48
3.5
100
AcDbLine
 10
1636.699902833108
 20
132.1032764502754
 30
0.0
 11
1637.172342833106
 21
132.1032764502754
 31
0.0
  0
LINE
  5
9727
330
5F6E
100
AcDbEntity
  8
0
100
AcDbLine
 10
1636.227954958103
 20
130.7961924502754
 30
0.0
 11
1668.731826958104
 21
130.7961924502754
 31
0.0
  0
LINE
  5
9728
330
5F6E
100
AcDbEntity
  8
0
100
AcDbLine
 10
1636.227954958103
 20
152.796148450275
 30
0.0
 11
1636.227954958103
 21
130.7961924502754
 31
0.0
  0
LINE
  5
9729
330
5F6E
100
AcDbEntity
  8
虚线
 48
0.2
100
AcDbLine
 10
1668.2598790831
 20
132.1032764502754
 30
0.0
 11
1668.259879083107
 21
151.5756784502748
 31
0.0
  0
LINE
  5
972A
330
5F6E
100
AcDbEntity
  8
虚线
 48
0.2
100
AcDbLine
 10
1667.787439083102
 20
132.1032764502754
 30
0.0
 11
1667.787439083102
 21
151.5756784502894
 31
0.0
  0
LINE
  5
972B
330
5F6E
100
AcDbEntity
  8
虚线
 48
3.5
100
AcDbLine
 10
1667.637833083103
 20
131.2686324502877
 30
0.0
 11
1667.637833083096
 21
131.7410724502854
 31
0.0
  0
LINE
  5
972C
330
5F6E
100
AcDbEntity
  8
虚线
 48
3.5
100
AcDbLine
 10
1668.2598790831
 20
132.1032764502754
 30
0.0
 11
1667.787439083102
 21
132.1032764502754
 31
0.0
  0
LINE
  5
972D
330
5F6E
100
AcDbEntity
  8
虚线
 48
3.5
100
AcDbLine
 10
1637.321948833105
 20
152.3237084502773
 30
0.0
 11
1637.321948833105
 21
151.8512684502796
 31
0.0
  0
LINE
  5
972E
330
5F6E
100
AcDbEntity
  8
虚线
 48
3.5
100
AcDbLine
 10
1636.699902833101
 20
151.5756784502894
 30
0.0
 11
1637.172342833099
 21
151.5756784502894
 31
0.0
  0
LINE
  5
972F
330
5F6E
100
AcDbEntity
  8
虚线
 48
3.5
100
AcDbLine
 10
1667.637833083103
 20
152.3237084502773
 30
0.0
 11
1667.637833083103
 21
151.8512684502796
 31
0.0
  0
LINE
  5
9730
330
5F6E
100
AcDbEntity
  8
虚线
 48
3.5
100
AcDbLine
 10
1668.259879083107
 20
151.5756784502748
 30
0.0
 11
1667.787439083102
 21
151.5756784502894
 31
0.0
  0
LINE
  5
9731
102
{ACAD_REACTORS
330
9734
102
}
330
5F6E
100
AcDbEntity
  8
0
100
AcDbLine
 10
1668.731826958104
 20
152.796148450275
 30
0.0
 11
1668.731826958104
 21
130.7961924502754
 31
0.0
  0
DIMENSION
  5
9732
102
{ACAD_XDICTIONARY
360
9733
102
}
102
{ACAD_REACTORS
330
9734
102
}
330
5F6E
100
AcDbEntity
  8
标注线
 48
5.0
100
AcDbDimension
  2
*D85
 10
1668.731826958104
 20
126.0413776034704
 30
0.0
 11
1652.479890958104
 21
126.0413776034704
 31
0.0
 70
    32
 71
     5
 42
32.50387200000114
  3
副本Standard$0
100
AcDbAlignedDimension
 13
1636.227954958103
 23
130.7961924502754
 33
0.0
 14
1668.731826958104
 24
130.7961924502754
 34
0.0
100
AcDbRotatedDimension
1001
ACAD
1000
DSTYLE
1002
{
1070
     3
1000
"
1070
    41
1040
0.65
1070
    42
1040
0.88
1070
    43
1040
0.015
1070
    44
1040
0.32
1070
    79
1070
     0
1070
   140
1040
0.65
1070
   147
1040
0.3
1070
   171
1070
     1
1070
   179
1070
     0
1070
   271
1070
     3
1070
   272
1070
     3
1070
   273
1070
     2
1070
   274
1070
     1
1070
   276
1070
     2
1070
   277
1070
     5
1070
   278
1070
    46
1070
   279
1070
     2
1070
   284
1070
     8
1070
   285
1070
     8
1070
   286
1070
     8
1002
}
  0
LINE
  5
9735
330
5F6E
100
AcDbEntity
  8
0
100
AcDbLine
 10
1637.605904958098
 20
149.0481244502746
 30
0.0
 11
1667.353876958102
 21
149.0481244502892
 31
0.0
  0
LINE
  5
9736
330
5F6E
100
AcDbEntity
  8
0
100
AcDbLine
 10
1667.353876958102
 20
132.0481584502861
 30
0.0
 11
1637.605904958105
 21
132.0481584502861
 31
0.0
  0
LINE
  5
9737
330
5F6E
100
AcDbEntity
  8
0
100
AcDbLine
 10
1637.605904958098
 20
149.0481244502746
 30
0.0
 11
1650.295392431482
 21
145.1855223871837
 31
0.0
  0
LINE
  5
9738
330
5F6E
100
AcDbEntity
  8
0
100
AcDbLine
 10
1637.605904958098
 20
149.0481244502746
 30
0.0
 11
1637.605904958105
 21
132.0481584502861
 31
0.0
  0
LINE
  5
9739
330
5F6E
100
AcDbEntity
  8
0
100
AcDbLine
 10
1637.605904958105
 20
132.0481584502861
 30
0.0
 11
1650.730176109802
 21
143.0533704694983
 31
0.0
  0
LINE
  5
973A
330
5F6E
100
AcDbEntity
  8
0
100
AcDbLine
 10
1667.353876958102
 20
149.0481244502892
 30
0.0
 11
1667.353876958102
 21
132.0481584502861
 31
0.0
  0
CIRCLE
  5
973B
330
5F6E
100
AcDbEntity
  8
细实线
100
AcDbCircle
 10
1652.479890958104
 20
144.5205744502757
 30
0.0
 40
2.16535
  0
CIRCLE
  5
973C
330
5F6E
100
AcDbEntity
  8
0
100
AcDbCircle
 10
1652.479890958104
 20
144.5205744502757
 30
0.0
 40
1.791335
  0
LINE
  5
973D
330
5F6E
100
AcDbEntity
  8
中心线
 48
2.5
100
AcDbLine
 10
1655.244193212744
 20
144.5205744502757
 30
0.0
 11
1649.557628593811
 21
144.5205744502757
 31
0.0
  0
CIRCLE
  5
973E
330
5F6E
100
AcDbEntity
  8
0
100
AcDbCircle
 10
1652.479890958104
 20
144.5205744502757
 30
0.0
 40
2.28346
  0
LINE
  5
973F
330
5F6E
100
AcDbEntity
  8
中心线
 48
2.5
100
AcDbLine
 10
1652.479890958104
 20
153.0075657861464
 30
0.0
 11
1652.479890958104
 21
130.5682913597714
 31
0.0
  0
LINE
  5
9740
330
5F6E
100
AcDbEntity
  8
0
100
AcDbLine
 10
1667.353876958102
 20
149.0481244502746
 30
0.0
 11
1654.664389484725
 21
145.1855223871837
 31
0.0
  0
LINE
  5
9741
330
5F6E
100
AcDbEntity
  8
0
100
AcDbLine
 10
1667.353876958102
 20
132.0481584502861
 30
0.0
 11
1654.229605806406
 21
143.0533704694983
 31
0.0
  0
LINE
  5
9742
330
5F6E
100
AcDbEntity
  8
0
100
AcDbLine
 10
1667.471986958098
 20
172.2198422156519
 30
0.0
 11
1637.487794958102
 21
172.2198422156519
 31
0.0
  0
LINE
  5
9743
330
5F6E
100
AcDbEntity
  8
中心线
 48
2.5
100
AcDbLine
 10
1652.479890958104
 20
168.0964621299656
 30
0.0
 11
1652.479890958104
 21
165.067668301331
 31
0.0
  0
LINE
  5
9744
330
5F6E
100
AcDbEntity
  8
0
100
AcDbLine
 10
1636.227954958103
 20
172.2198422156519
 30
0.0
 11
1637.487794958102
 21
172.2198422156519
 31
0.0
  0
LINE
  5
9745
330
5F6E
100
AcDbEntity
  8
虚线
 48
3.5
100
AcDbLine
 10
1637.605904958098
 20
172.101732215656
 30
0.0
 11
1637.605904958098
 21
166.8566652470338
 31
0.0
  0
LINE
  5
9746
330
5F6E
100
AcDbEntity
  8
0
100
AcDbLine
 10
1636.227954958103
 20
172.1607872156467
 30
0.0
 11
1637.487794958102
 21
172.1607872156467
 31
0.0
  0
LINE
  5
9747
330
5F6E
100
AcDbEntity
  8
0
100
AcDbLine
 10
1637.5468499581
 20
172.101732215656
 30
0.0
 11
1637.5468499581
 21
166.8556851850892
 31
0.0
  0
LINE
  5
9748
330
5F6E
100
AcDbEntity
  8
0
100
AcDbLine
 10
1636.227954958103
 20
172.2198422156519
 30
0.0
 11
1636.227954958103
 21
172.1607872156467
 31
0.0
  0
ARC
  5
9749
330
5F6E
100
AcDbEntity
  8
虚线
 48
3.5
100
AcDbCircle
 10
1637.487794958102
 20
172.101732215656
 30
0.0
 40
0.11811
100
AcDbArc
 50
0.0
 51
90.0
  0
ARC
  5
974A
330
5F6E
100
AcDbEntity
  8
0
100
AcDbCircle
 10
1637.487794958102
 20
172.101732215656
 30
0.0
 40
0.059055
100
AcDbArc
 50
0.0
 51
90.0
  0
ARC
  5
974B
330
5F6E
100
AcDbEntity
  8
虚线
 48
3.5
100
AcDbCircle
 10
1637.664959958103
 20
166.8566652470338
 30
0.0
 40
0.059055
100
AcDbArc
 50
180.0
 51
269.0314266090763
  0
ARC
  5
974C
330
5F6E
100
AcDbEntity
  8
0
100
AcDbCircle
 10
1637.664959958103
 20
166.8556851850892
 30
0.0
 40
0.11811
100
AcDbArc
 50
180.0
 51
269.0363134228635
  0
DIMENSION
  5
974D
330
5F6E
100
AcDbEntity
  8
标注线
 48
5.0
100
AcDbDimension
  2
*D79
 10
1670.238118996062
 20
166.7193694503087
 30
0.0
 11
1670.238118996062
 21
169.3887733284278
 31
0.0
 70
   160
 71
     5
 42
5.500472765343147
  3
副本Standard$0
100
AcDbAlignedDimension
 13
1668.731826958104
 23
172.2198422156519
 33
0.0
 14
1667.423586391469
 24
166.7193694503087
 34
0.0
 50
90.0
100
AcDbRotatedDimension
1001
ACAD
1000
DSTYLE
1002
{
1070
     3
1000
"
1070
    41
1040
0.65
1070
    42
1040
0.88
1070
    43
1040
0.015
1070
    44
1040
0.32
1070
    79
1070
     0
1070
   140
1040
0.65
1070
   147
1040
0.3
1070
   171
1070
     1
1070
   179
1070
     0
1070
   271
1070
     3
1070
   272
1070
     3
1070
   273
1070
     2
1070
   274
1070
     1
1070
   276
1070
     2
1070
   277
1070
     5
1070
   278
1070
    46
1070
   279
1070
     2
1070
   284
1070
     8
1070
   285
1070
     8
1070
   286
1070
     8
1002
}
  0
LINE
  5
974E
330
5F6E
100
AcDbEntity
  8
0
100
AcDbLine
 10
1668.731826958104
 20
172.2198422156519
 30
0.0
 11
1667.471986958098
 21
172.2198422156519
 31
0.0
  0
LINE
  5
974F
330
5F6E
100
AcDbEntity
  8
虚线
 48
3.5
100
AcDbLine
 10
1667.353876958102
 20
172.101732215656
 30
0.0
 11
1667.353876958102
 21
166.8566652470338
 31
0.0
  0
LINE
  5
9750
330
5F6E
100
AcDbEntity
  8
虚线
 48
3.5
100
AcDbLine
 10
1667.295820223207
 20
166.7976186849712
 30
0.0
 11
1654.836346952488
 21
166.6411202156462
 31
0.0
  0
LINE
  5
9751
330
5F6E
100
AcDbEntity
  8
虚线
 48
3.5
100
AcDbLine
 10
1654.763350958102
 20
166.6411202156462
 30
0.0
 11
1650.196430958105
 21
166.6411202156462
 31
0.0
  0
LINE
  5
9752
330
5F6E
100
AcDbEntity
  8
虚线
 48
3.5
100
AcDbLine
 10
1650.123435485631
 20
166.6411202156462
 30
0.0
 11
1654.836346952488
 21
166.6411202156462
 31
0.0
  0
ARC
  5
9753
330
5F6E
100
AcDbEntity
  8
虚线
 48
3.5
100
AcDbCircle
 10
1654.836346952503
 20
166.5230102156504
 30
0.0
 40
0.11811
100
AcDbArc
 50
90.00000000541946
 51
153.4349489366489
  0
ARC
  5
9754
330
5F6E
100
AcDbEntity
  8
虚线
 48
3.5
100
AcDbCircle
 10
1650.123434963697
 20
166.5230102156504
 30
0.0
 40
0.11811
100
AcDbArc
 50
26.5650513236182
 51
89.99999999458053
  0
ARC
  5
9755
330
5F6E
100
AcDbEntity
  8
虚线
 48
3.5
100
AcDbCircle
 10
1654.608742960899
 20
166.4639552156452
 30
0.0
 40
0.059055
100
AcDbArc
 50
270.000000052944
 51
333.4349483465817
  0
ARC
  5
9756
330
5F6E
100
AcDbEntity
  8
虚线
 48
3.5
100
AcDbCircle
 10
1650.351038955301
 20
166.4639552156452
 30
0.0
 40
0.059055
100
AcDbArc
 50
206.5650522239099
 51
269.9999999470561
  0
LINE
  5
9757
330
5F6E
100
AcDbEntity
  8
虚线
 48
3.5
100
AcDbLine
 10
1650.298218557549
 20
166.4375450167875
 30
0.0
 11
1650.22907575923
 21
166.5758306134241
 31
0.0
  0
LINE
  5
9758
330
5F6E
100
AcDbEntity
  8
虚线
 48
3.5
100
AcDbLine
 10
1654.608742960899
 20
166.4049002156546
 30
0.0
 11
1654.251540958099
 21
166.4049002156546
 31
0.0
  0
LINE
  5
9759
330
5F6E
100
AcDbEntity
  8
虚线
 48
3.5
100
AcDbLine
 10
1650.708240958101
 20
166.3458452156494
 30
0.0
 11
1650.708240958101
 21
166.4049002156546
 31
0.0
  0
LINE
  5
975A
330
5F6E
100
AcDbEntity
  8
虚线
 48
3.5
100
AcDbLine
 10
1654.661563358651
 20
166.4375450167875
 30
0.0
 11
1654.730706156977
 21
166.5758306134241
 31
0.0
  0
LINE
  5
975B
330
5F6E
100
AcDbEntity
  8
虚线
 48
3.5
100
AcDbLine
 10
1654.251540958099
 20
166.3458452156494
 30
0.0
 11
1654.251540958099
 21
166.4049002156546
 31
0.0
  0
LINE
  5
975C
330
5F6E
100
AcDbEntity
  8
虚线
 48
3.5
100
AcDbLine
 10
1650.708240958101
 20
166.4049002156546
 30
0.0
 11
1650.351038955301
 21
166.4049002156546
 31
0.0
  0
LINE
  5
975D
330
5F6E
100
AcDbEntity
  8
虚线
 48
3.5
100
AcDbLine
 10
1654.251540958099
 20
166.4049002156546
 30
0.0
 11
1650.708240958101
 21
166.4049002156546
 31
0.0
  0
LINE
  5
975E
330
5F6E
100
AcDbEntity
  8
0
100
AcDbLine
 10
1654.714383756418
 20
166.4111348179006
 30
0.0
 11
1654.783526554736
 21
166.5494204145373
 31
0.0
  0
ARC
  5
975F
330
5F6E
100
AcDbEntity
  8
0
100
AcDbCircle
 10
1654.836346952503
 20
166.5230102156504
 30
0.0
 40
0.059055
100
AcDbArc
 50
90.00000000541946
 51
153.4349489366489
  0
LINE
  5
9760
330
5F6E
100
AcDbEntity
  8
0
100
AcDbLine
 10
1667.296808416027
 20
166.7375918910996
 30
0.0
 11
1654.836346952488
 21
166.582065215641
 31
0.0
  0
ARC
  5
9761
330
5F6E
100
AcDbEntity
  8
0
100
AcDbCircle
 10
1654.608742960899
 20
166.4639552156452
 30
0.0
 40
0.11811
100
AcDbArc
 50
270.000000052944
 51
333.4349483465817
  0
LINE
  5
9762
330
5F6E
100
AcDbEntity
  8
0
100
AcDbLine
 10
1654.608742960899
 20
166.3458452156494
 30
0.0
 11
1654.251540958099
 21
166.3458452156494
 31
0.0
  0
LINE
  5
9763
330
5F6E
100
AcDbEntity
  8
0
100
AcDbLine
 10
1654.251540958099
 20
166.3458452156494
 30
0.0
 11
1650.708240958101
 21
166.3458452156494
 31
0.0
  0
LINE
  5
9764
330
5F6E
100
AcDbEntity
  8
0
100
AcDbLine
 10
1650.708240958101
 20
166.3458452156494
 30
0.0
 11
1650.351038955301
 21
166.3458452156494
 31
0.0
  0
ARC
  5
9765
330
5F6E
100
AcDbEntity
  8
0
100
AcDbCircle
 10
1650.351038955301
 20
166.4639552156452
 30
0.0
 40
0.11811
100
AcDbArc
 50
206.5650522239099
 51
269.9999999470561
  0
LINE
  5
9766
330
5F6E
100
AcDbEntity
  8
0
100
AcDbLine
 10
1650.245398159782
 20
166.4111348179006
 30
0.0
 11
1650.176255361464
 21
166.5494204145373
 31
0.0
  0
ARC
  5
9767
330
5F6E
100
AcDbEntity
  8
0
100
AcDbCircle
 10
1650.123434963697
 20
166.5230102156504
 30
0.0
 40
0.059055
100
AcDbArc
 50
26.5650513236182
 51
89.99999999458053
  0
LINE
  5
9768
330
5F6E
100
AcDbEntity
  8
0
100
AcDbLine
 10
1668.731826958104
 20
172.1607872156467
 30
0.0
 11
1667.471986958098
 21
172.1607872156467
 31
0.0
  0
LINE
  5
9769
330
5F6E
100
AcDbEntity
  8
0
100
AcDbLine
 10
1667.4129319581
 20
172.101732215656
 30
0.0
 11
1667.4129319581
 21
166.8556851850892
 31
0.0
  0
LINE
  5
976A
330
5F6E
100
AcDbEntity
  8
0
100
AcDbLine
 10
1668.731826958104
 20
172.2198422156519
 30
0.0
 11
1668.731826958104
 21
172.1607872156467
 31
0.0
  0
ARC
  5
976B
330
5F6E
100
AcDbEntity
  8
虚线
 48
3.5
100
AcDbCircle
 10
1667.471986958098
 20
172.101732215656
 30
0.0
 40
0.11811
100
AcDbArc
 50
90.0
 51
180.0
  0
ARC
  5
976C
330
5F6E
100
AcDbEntity
  8
0
100
AcDbCircle
 10
1667.471986958098
 20
172.101732215656
 30
0.0
 40
0.059055
100
AcDbArc
 50
90.0
 51
180.0
  0
ARC
  5
976D
330
5F6E
100
AcDbEntity
  8
虚线
 48
3.5
100
AcDbCircle
 10
1667.294821958105
 20
166.8566652470338
 30
0.0
 40
0.059055
100
AcDbArc
 50
270.9685733909237
 51
0.0
  0
ARC
  5
976E
330
5F6E
100
AcDbEntity
  8
0
100
AcDbCircle
 10
1667.294821958105
 20
166.8556851850892
 30
0.0
 40
0.11811
100
AcDbArc
 50
270.9636865771364
 51
0.0
  0
LINE
  5
976F
330
5F6E
100
AcDbEntity
  8
虚线
 48
3.5
100
AcDbLine
 10
1637.663961692993
 20
166.7976186849712
 30
0.0
 11
1650.123434963712
 21
166.6411202156462
 31
0.0
  0
LINE
  5
9770
330
5F6E
100
AcDbEntity
  8
0
100
AcDbLine
 10
1637.662973500173
 20
166.7375918910996
 30
0.0
 11
1650.123434963712
 21
166.5820652156556
 31
0.0
  0
INSERT
  5
9771
330
5F6E
100
AcDbEntity
  8
标注
100
AcDbBlockReference
  2
U
 10
515.8351442215823
 20
4215.369406314291
 30
0.0
 41
0.0393699999985984
 42
0.0393699999985984
 43
0.03937
  0
INSERT
  5
9772
330
5F6E
100
AcDbEntity
  8
标注
100
AcDbBlockReference
  2
U
 10
2789.124637694619
 20
4215.369406314291
 30
0.0
 41
-0.0393699999985984
 42
0.0393699999985984
 43
0.03937
  0
DIMENSION
  5
9773
330
5F6E
100
AcDbEntity
  8
标注线
 48
5.0
100
AcDbDimension
  2
*D80
 10
1671.059817168981
 20
94.86735294377442
 30
0.0
 11
1671.059817168981
 21
105.4736309437739
 31
0.0
 70
   160
 71
     5
 42
21.21255599999859
  3
副本Standard$0
100
AcDbAlignedDimension
 13
1668.279071958098
 23
116.079908943773
 33
0.0
 14
1668.338126958104
 24
94.86735294377442
 34
0.0
 50
90.0
100
AcDbRotatedDimension
1001
ACAD
1000
DSTYLE
1002
{
1070
     3
1000
"
1070
    41
1040
0.65
1070
    42
1040
0.88
1070
    43
1040
0.015
1070
    44
1040
0.32
1070
    79
1070
     0
1070
   140
1040
0.65
1070
   147
1040
0.3
1070
   171
1070
     1
1070
   179
1070
     0
1070
   271
1070
     3
1070
   272
1070
     3
1070
   273
1070
     2
1070
   274
1070
     1
1070
   276
1070
     2
1070
   277
1070
     5
1070
   278
1070
    46
1070
   279
1070
     2
1070
   284
1070
     8
1070
   285
1070
     8
1070
   286
1070
     8
1002
}
  0
LWPOLYLINE
  5
9774
330
5F6E
100
AcDbEntity
  8
中心线
  6
Continuous
 62
     1
100
AcDbPolyline
 90
        4
 70
     1
 43
0.0
 10
1668.338126958104
 20
116.079908943773
 10
1668.338126958104
 20
94.86735294377442
 10
1636.621654958104
 20
94.86735294377442
 10
1636.621654958104
 20
116.079908943773
  0
DIMENSION
  5
9775
330
5F6E
100
AcDbEntity
  8
标注线
 48
5.0
100
AcDbDimension
  2
*D81
 10
1668.338126958104
 20
92.09160419376869
 30
0.0
 11
1652.479890958104
 21
92.09160419376869
 31
0.0
 70
    32
 71
     5
 42
31.71647200000007
  3
副本Standard$0
100
AcDbAlignedDimension
 13
1636.621654958104
 23
94.86735294377442
 33
0.0
 14
1668.338126958104
 24
94.86735294377442
 34
0.0
100
AcDbRotatedDimension
1001
ACAD
1000
DSTYLE
1002
{
1070
     3
1000
"
1070
    41
1040
0.65
1070
    42
1040
0.88
1070
    43
1040
0.015
1070
    44
1040
0.32
1070
    79
1070
     0
1070
   140
1040
0.65
1070
   147
1040
0.3
1070
   171
1070
     1
1070
   179
1070
     0
1070
   271
1070
     3
1070
   272
1070
     3
1070
   273
1070
     2
1070
   274
1070
     1
1070
   276
1070
     2
1070
   277
1070
     5
1070
   278
1070
    46
1070
   279
1070
     2
1070
   284
1070
     8
1070
   285
1070
     8
1070
   286
1070
     8
1002
}
  0
LINE
  5
9776
330
5F6E
100
AcDbEntity
  8
0
100
AcDbLine
 10
1637.321948833141
 20
171.5308672156545
 30
0.0
 11
1637.321948833141
 21
172.1607872156467
 31
0.0
  0
LINE
  5
9777
330
5F6E
100
AcDbEntity
  8
0
100
AcDbLine
 10
1637.321948833141
 20
171.5308672156545
 30
0.0
 11
1637.5468499581
 21
171.5308672156545
 31
0.0
  0
LINE
  5
9778
330
5F6E
100
AcDbEntity
  8
0
100
AcDbLine
 10
1667.637833083066
 20
171.5308672156545
 30
0.0
 11
1667.637833083059
 21
172.1607872156467
 31
0.0
  0
LINE
  5
9779
330
5F6E
100
AcDbEntity
  8
0
100
AcDbLine
 10
1667.637833083066
 20
171.5308672156545
 30
0.0
 11
1667.4129319581
 21
171.5308672156545
 31
0.0
  0
LINE
  5
977A
330
5F6E
100
AcDbEntity
  8
0
100
AcDbLine
 10
1667.471986958098
 20
172.1607872156467
 30
0.0
 11
1637.487794958102
 21
172.1607872156467
 31
0.0
  0
LINE
  5
977B
330
5F6E
100
AcDbEntity
  8
0
100
AcDbLine
 10
1650.123434963697
 20
166.582065215641
 30
0.0
 11
1654.836346952503
 21
166.582065215641
 31
0.0
  0
TEXT
  5
98A7
330
5F6E
100
AcDbEntity
  8
标注
100
AcDbText
 10
1649.399329436077
 20
158.515587986257
 30
0.0
 40
0.7874015748031497
  1
FRONT VIEW
100
AcDbText
  0
TEXT
  5
98A8
330
5F6E
100
AcDbEntity
  8
标注
100
AcDbText
 10
1647.896085421206
 20
123.312879742423
 30
0.0
 40
0.7874015748031497
  1
OVERHEAD VIEW
100
AcDbText
  0
TEXT
  5
98A9
330
5F6E
100
AcDbEntity
  8
标注
100
AcDbText
 10
1653.199150096974
 20
87.51827394160686
 30
0.0
 40
0.7874015748031497
  1
 CUTOUT
100
AcDbText
  0
LINE
  5
98AA
330
5F6E
100
AcDbEntity
  8
中心线
  6
Continuous
 62
     1
100
AcDbLine
 10
1645.533744016407
 20
87.77147540891169
 30
0.0
 11
1651.750549020491
 21
87.77147540891169
 31
0.0
  0
ENDSEC
  0
SECTION
  2
OBJECTS
  0
DICTIONARY
  5
5F06
330
0
100
AcDbDictionary
281
     1
  3
ACAD_2007HEADERVARS_RT
350
992B
  3
ACAD_COLOR
350
5F64
  3
ACAD_GROUP
350
5F07
  3
ACAD_IMAGE_DICT
350
8BFE
  3
ACAD_IMAGE_VARS
350
8C00
  3
ACAD_LAYOUT
350
5F63
  3
ACAD_MATERIAL
350
5F0A
  3
ACAD_MLEADERSTYLE
350
5F67
  3
ACAD_MLINESTYLE
350
5F60
  3
ACAD_PLOTSETTINGS
350
5F62
  3
ACAD_PLOTSTYLENAME
350
5F08
  3
ACAD_SCALELIST
350
5F34
  3
ACAD_TABLESTYLE
350
5F65
  3
ACAD_VISUALSTYLE
350
5F23
  3
ACDB_RECOMPOSE_DATA
350
6F70
  3
AcDbVariableDictionary
350
6102
  3
DWGPROPS
350
992A
  3
lxx_dict
350
60F2
  0
DICTIONARY
  5
61B7
330
5EFC
100
AcDbDictionary
280
     1
281
     1
  3
ACAD_LAYERSTATES
360
61B8
  0
DICTIONARY
  5
60F4
330
5F56
100
AcDbDictionary
280
     1
281
     1
  3
ADSK_XREC_LAYER_RECONCILED
360
60F5
  0
DICTIONARY
  5
60F6
330
5F72
100
AcDbDictionary
280
     1
281
     1
  3
ADSK_XREC_LAYER_RECONCILED
360
60F7
  0
DICTIONARY
  5
60F8
330
5F7D
100
AcDbDictionary
280
     1
281
     1
  3
ADSK_XREC_LAYER_RECONCILED
360
60F9
  0
DICTIONARY
  5
60FA
330
5F7E
100
AcDbDictionary
280
     1
281
     1
  3
ADSK_XREC_LAYER_RECONCILED
360
60FB
  0
DICTIONARY
  5
60FC
330
5F80
100
AcDbDictionary
280
     1
281
     1
  3
ADSK_XREC_LAYER_RECONCILED
360
60FD
  0
DICTIONARY
  5
6B9D
330
6B9C
100
AcDbDictionary
280
     1
281
     1
  0
DICTIONARY
  5
654F
330
5F6E
100
AcDbDictionary
280
     1
281
     1
  3
ACAD_SORTENTS
360
6550
  0
DICTIONARY
  5
9936
330
8C16
100
AcDbDictionary
280
     1
281
     1
  3
ACAD_MTEXT_RT
360
9937
  0
DICTIONARY
  5
9938
330
8F1C
100
AcDbDictionary
280
     1
281
     1
  3
ACAD_MTEXT_RT
360
9939
  0
DICTIONARY
  5
9733
330
9732
100
AcDbDictionary
280
     1
281
     1
  3
ACAD_DIMASSOC
360
9734
  0
DICTIONARY
  5
992B
102
{ACAD_REACTORS
330
5F06
102
}
330
5F06
100
AcDbDictionary
281
     1
  3
DIMFXL
350
992C
  3
DIMJOGANG
350
992D
  3
DIMLTEX1
350
992F
  3
DIMLTEX2
350
9930
  3
DIMLTYPE
350
992E
  0
DICTIONARY
  5
5F64
102
{ACAD_REACTORS
330
5F06
102
}
330
5F06
100
AcDbDictionary
281
     1
  0
DICTIONARY
  5
5F07
102
{ACAD_REACTORS
330
5F06
102
}
330
5F06
100
AcDbDictionary
281
     1
  0
DICTIONARY
  5
8BFE
102
{ACAD_REACTORS
330
5F06
102
}
330
5F06
100
AcDbDictionary
281
     1
  0
RASTERVARIABLES
  5
8C00
102
{ACAD_REACTORS
330
5F06
102
}
330
5F06
100
AcDbRasterVariables
 90
        0
 70
     1
 71
     1
 72
     0
  0
DICTIONARY
  5
5F63
102
{ACAD_REACTORS
330
5F06
102
}
330
5F06
100
AcDbDictionary
281
     1
  3
Model
350
5F71
  3
布局1
350
5F6D
  0
DICTIONARY
  5
5F0A
102
{ACAD_REACTORS
330
5F06
102
}
330
5F06
100
AcDbDictionary
281
     1
  3
ByBlock
350
5F13
  3
ByLayer
350
5F0B
  3
Global
350
5F1B
  0
DICTIONARY
  5
5F67
102
{ACAD_REACTORS
330
5F06
102
}
330
5F06
100
AcDbDictionary
281
     1
  3
Standard
350
5F68
  0
DICTIONARY
  5
5F60
102
{ACAD_REACTORS
330
5F06
102
}
330
5F06
100
AcDbDictionary
281
     1
  3
Standard
350
5F61
  0
DICTIONARY
  5
5F62
102
{ACAD_REACTORS
330
5F06
102
}
330
5F06
100
AcDbDictionary
281
     1
  0
ACDBDICTIONARYWDFLT
  5
5F08
102
{ACAD_REACTORS
330
5F06
102
}
330
5F06
100
AcDbDictionary
281
     1
  3
Normal
350
5F09
100
AcDbDictionaryWithDefault
340
5F09
  0
DICTIONARY
  5
5F34
102
{ACAD_REACTORS
330
5F06
102
}
330
5F06
100
AcDbDictionary
281
     1
  3
A0
350
5F35
  3
A1
350
5F36
  3
A2
350
5F37
  3
A3
350
5F38
  3
A4
350
5F39
  3
A5
350
5F3A
  3
A6
350
5F3B
  3
A7
350
5F3C
  3
A8
350
5F3D
  3
A9
350
5F3E
  3
B0
350
5F3F
  3
B1
350
5F40
  3
B2
350
5F41
  3
B3
350
5F42
  3
B4
350
5F43
  3
B5
350
5F44
  3
B6
350
5F45
  3
B7
350
5F46
  3
B8
350
5F47
  3
B9
350
5F48
  3
C0
350
5F49
  3
C1
350
5F4A
  3
C2
350
5F4B
  3
C3
350
5F4C
  3
C4
350
5F4D
  3
C5
350
5F4E
  3
C6
350
5F4F
  3
C7
350
5F50
  3
C8
350
5F51
  3
C9
350
5F52
  3
D0
350
5F53
  3
D1
350
5F54
  3
D2
350
5F55
  0
DICTIONARY
  5
5F65
102
{ACAD_REACTORS
330
5F06
102
}
330
5F06
100
AcDbDictionary
281
     1
  3
Standard
350
5F66
  0
DICTIONARY
  5
5F23
102
{ACAD_REACTORS
330
5F06
102
}
330
5F06
100
AcDbDictionary
281
     1
  3
2dWireframe
350
5F29
  3
3D Hidden
350
5F2B
  3
3dWireframe
350
5F2A
  3
Basic
350
5F28
  3
Brighten
350
5F2F
  3
ColorChange
350
5F33
  3
Conceptual
350
5F2C
  3
Dim
350
5F2E
  3
Facepattern
350
5F32
  3
Flat
350
5F24
  3
FlatWithEdges
350
5F25
  3
Gouraud
350
5F26
  3
GouraudWithEdges
350
5F27
  3
Linepattern
350
5F31
  3
Realistic
350
5F2D
  3
Thicken
350
5F30
  0
XRECORD
  5
6F70
102
{ACAD_REACTORS
330
5F06
102
}
330
5F06
100
AcDbXrecord
280
     1
 90
        1
330
5F66
  0
DICTIONARY
  5
6102
102
{ACAD_REACTORS
330
5F06
102
}
330
5F06
100
AcDbDictionary
281
     1
  3
CANNOSCALE
350
6105
  3
CMLEADERSTYLE
350
6104
  3
CTABLESTYLE
350
6103
  3
DIMASSOC
350
6108
  3
INDEXCTL
350
6107
  3
SORTENTS
350
6106
  0
XRECORD
  5
992A
102
{ACAD_REACTORS
330
5F06
102
}
330
5F06
100
AcDbXrecord
280
     1
  1
DWGPROPS COOKIE
  2

  3

  4

  6

  7

  8
Administrator
  9

300
=
301
=
302
=
303
=
304
=
305
=
306
=
307
=
308
=
309
=
 40
0.8212652314814814
 41
2455434.724808658
 42
2458649.67934566
  1

 90
        0
  0
DICTIONARY
  5
60F2
102
{ACAD_REACTORS
330
5F06
102
}
330
5F06
100
AcDbDictionary
281
     1
  3
lxx_dimth
350
60F3
  0
DICTIONARY
  5
61B8
102
{ACAD_REACTORS
330
61B7
102
}
330
61B7
100
AcDbDictionary
281
     1
  0
XRECORD
  5
60F5
102
{ACAD_REACTORS
330
60F4
102
}
330
60F4
100
AcDbXrecord
280
     1
290
     1
  0
XRECORD
  5
60F7
102
{ACAD_REACTORS
330
60F6
102
}
330
60F6
100
AcDbXrecord
280
     1
290
     1
  0
XRECORD
  5
60F9
102
{ACAD_REACTORS
330
60F8
102
}
330
60F8
100
AcDbXrecord
280
     1
290
     1
  0
XRECORD
  5
60FB
102
{ACAD_REACTORS
330
60FA
102
}
330
60FA
100
AcDbXrecord
280
     1
290
     1
  0
XRECORD
  5
60FD
102
{ACAD_REACTORS
330
60FC
102
}
330
60FC
100
AcDbXrecord
280
     1
290
     1
  0
SORTENTSTABLE
  5
6550
102
{ACAD_REACTORS
330
654F
102
}
330
654F
100
AcDbSortentsTable
330
5F6E
  0
XRECORD
  5
9937
102
{ACAD_REACTORS
330
9936
102
}
330
9936
100
AcDbXrecord
280
     1
 40
2579.0
  1
86°
  0
XRECORD
  5
9939
102
{ACAD_REACTORS
330
9938
102
}
330
9938
100
AcDbXrecord
280
     1
 40
5820.0
  1
\A1;86°"
  0
DIMASSOC
  5
9734
102
{ACAD_REACTORS
330
9733
102
}
330
9733
100
AcDbDimAssoc
330
9732
 90
        2
 70
     0
 71
     0
  1
AcDbOsnapPointRef
 72
     1
331
9731
 73
     2
 91
        0
 40
1.0
 10
0.0
 20
0.0
 30
2.000000000000000E+50
 75
     0
  0
XRECORD
  5
992C
102
{ACAD_REACTORS
330
992B
102
}
330
992B
100
AcDbXrecord
280
     1
 40
1.25
  0
XRECORD
  5
992D
102
{ACAD_REACTORS
330
992B
102
}
330
992B
100
AcDbXrecord
280
     1
 40
1.570796326794896
  0
XRECORD
  5
992F
102
{ACAD_REACTORS
330
992B
102
}
330
992B
100
AcDbXrecord
280
     1
340
5F5E
  0
XRECORD
  5
9930
102
{ACAD_REACTORS
330
992B
102
}
330
992B
100
AcDbXrecord
280
     1
340
5F5E
  0
XRECORD
  5
992E
102
{ACAD_REACTORS
330
992B
102
}
330
992B
100
AcDbXrecord
280
     1
340
5F5E
  0
LAYOUT
  5
5F71
102
{ACAD_XDICTIONARY
360
9934
102
}
102
{ACAD_REACTORS
330
5F63
102
}
330
5F63
100
AcDbPlotSettings
  1

  2
\\192.168.1.64\Canon LBP2900
  4
A4
  6

 40
5.873749732971191
 41
6.805061340332031
 42
5.873748779296875
 43
4.857757568359375
 44
209.9733276367186
 45
296.9259948730469
 46
0.0
 47
0.0
 48
0.0
 49
0.0
140
0.0
141
0.0
142
1.0
143
15.879357507287
 70
 11952
 72
     0
 73
     1
 74
     0
  7

 75
     0
147
0.0629748401055334
148
-27226.80690415248
149
-2266.514499453142
100
AcDbLayout
  1
Model
 70
     1
 71
     0
 10
0.0
 20
0.0
 11
12.0
 21
9.0
 12
0.0
 22
0.0
 32
0.0
 14
0.0
 24
0.0
 34
0.0
 15
0.0
 25
0.0
 35
0.0
146
0.0
 13
0.0
 23
0.0
 33
0.0
 16
1.0
 26
0.0
 36
0.0
 17
0.0
 27
1.0
 37
0.0
 76
     0
330
5F6E
331
5F73
1001
ACAD_PSEXT
1000
\\192.168.1.64\Canon LBP2900
1000
Canon LBP2900
1000
\\192.168.1.64
1000

1070
     0
  0
LAYOUT
  5
5F6D
102
{ACAD_XDICTIONARY
360
9932
102
}
102
{ACAD_REACTORS
330
5F63
102
}
330
5F63
100
AcDbPlotSettings
  1

  2
\\192.168.1.64\Canon LBP2900
  4

  6

 40
0.0
 41
0.0
 42
0.0
 43
0.0
 44
0.0
 45
0.0
 46
0.0
 47
0.0
 48
0.0
 49
0.0
140
0.0
141
0.0
142
1.0
143
1.0
 70
   688
 72
     0
 73
     0
 74
     5
  7

 75
    16
147
1.0
148
0.0
149
0.0
100
AcDbLayout
  1
布局1
 70
     1
 71
     1
 10
0.0
 20
0.0
 11
12.0
 21
9.0
 12
0.0
 22
0.0
 32
0.0
 14
1.000000000000000E+20
 24
1.000000000000000E+20
 34
1.000000000000000E+20
 15
-1.000000000000000E+20
 25
-1.000000000000000E+20
 35
-1.000000000000000E+20
146
0.0
 13
0.0
 23
0.0
 33
0.0
 16
1.0
 26
0.0
 36
0.0
 17
0.0
 27
1.0
 37
0.0
 76
     0
330
5F6A
  0
MATERIAL
  5
5F13
102
{ACAD_XDICTIONARY
360
5F14
102
}
102
{ACAD_REACTORS
330
5F0A
102
}
330
5F0A
100
AcDbMaterial
  1
ByBlock
 72
     0
 43
0.0208333333333333
 43
0.0
 43
0.0
 43
0.0
 43
0.0
 43
0.0208333333333333
 43
0.0
 43
0.0
 43
0.0
 43
0.0
 43
1.0
 43
0.0
 43
0.0
 43
0.0
 43
0.0
 43
1.0
 77
     0
 47
0.0208333333333333
 47
0.0
 47
0.0
 47
0.0
 47
0.0
 47
0.0208333333333333
 47
0.0
 47
0.0
 47
0.0
 47
0.0
 47
1.0
 47
0.0
 47
0.0
 47
0.0
 47
0.0
 47
1.0
171
     0
 49
0.0208333333333333
 49
0.0
 49
0.0
 49
0.0
 49
0.0
 49
0.0208333333333333
 49
0.0
 49
0.0
 49
0.0
 49
0.0
 49
1.0
 49
0.0
 49
0.0
 49
0.0
 49
0.0
 49
1.0
175
     0
142
0.0208333333333333
142
0.0
142
0.0
142
0.0
142
0.0
142
0.0208333333333333
142
0.0
142
0.0
142
0.0
142
0.0
142
1.0
142
0.0
142
0.0
142
0.0
142
0.0
142
1.0
179
     0
144
0.0208333333333333
144
0.0
144
0.0
144
0.0
144
0.0
144
0.0208333333333333
144
0.0
144
0.0
144
0.0
144
0.0
144
1.0
144
0.0
144
0.0
144
0.0
144
0.0
144
1.0
147
0.0208333333333333
147
0.0
147
0.0
147
0.0
147
0.0
147
0.0208333333333333
147
0.0
147
0.0
147
0.0
147
0.0
147
1.0
147
0.0
147
0.0
147
0.0
147
0.0
147
1.0
  0
MATERIAL
  5
5F0B
102
{ACAD_XDICTIONARY
360
5F0C
102
}
102
{ACAD_REACTORS
330
5F0A
102
}
330
5F0A
100
AcDbMaterial
  1
ByLayer
 72
     0
 43
0.0208333333333333
 43
0.0
 43
0.0
 43
0.0
 43
0.0
 43
0.0208333333333333
 43
0.0
 43
0.0
 43
0.0
 43
0.0
 43
1.0
 43
0.0
 43
0.0
 43
0.0
 43
0.0
 43
1.0
 77
     0
 47
0.0208333333333333
 47
0.0
 47
0.0
 47
0.0
 47
0.0
 47
0.0208333333333333
 47
0.0
 47
0.0
 47
0.0
 47
0.0
 47
1.0
 47
0.0
 47
0.0
 47
0.0
 47
0.0
 47
1.0
171
     0
 49
0.0208333333333333
 49
0.0
 49
0.0
 49
0.0
 49
0.0
 49
0.0208333333333333
 49
0.0
 49
0.0
 49
0.0
 49
0.0
 49
1.0
 49
0.0
 49
0.0
 49
0.0
 49
0.0
 49
1.0
175
     0
142
0.0208333333333333
142
0.0
142
0.0
142
0.0
142
0.0
142
0.0208333333333333
142
0.0
142
0.0
142
0.0
142
0.0
142
1.0
142
0.0
142
0.0
142
0.0
142
0.0
142
1.0
179
     0
144
0.0208333333333333
144
0.0
144
0.0
144
0.0
144
0.0
144
0.0208333333333333
144
0.0
144
0.0
144
0.0
144
0.0
144
1.0
144
0.0
144
0.0
144
0.0
144
0.0
144
1.0
147
0.0208333333333333
147
0.0
147
0.0
147
0.0
147
0.0
147
0.0208333333333333
147
0.0
147
0.0
147
0.0
147
0.0
147
1.0
147
0.0
147
0.0
147
0.0
147
0.0
147
1.0
  0
MATERIAL
  5
5F1B
102
{ACAD_XDICTIONARY
360
5F1C
102
}
102
{ACAD_REACTORS
330
5F0A
102
}
330
5F0A
100
AcDbMaterial
  1
Global
 72
     0
 43
0.0208333333333333
 43
0.0
 43
0.0
 43
0.0
 43
0.0
 43
0.0208333333333333
 43
0.0
 43
0.0
 43
0.0
 43
0.0
 43
1.0
 43
0.0
 43
0.0
 43
0.0
 43
0.0
 43
1.0
 77
     0
 47
0.0208333333333333
 47
0.0
 47
0.0
 47
0.0
 47
0.0
 47
0.0208333333333333
 47
0.0
 47
0.0
 47
0.0
 47
0.0
 47
1.0
 47
0.0
 47
0.0
 47
0.0
 47
0.0
 47
1.0
171
     0
 49
0.0208333333333333
 49
0.0
 49
0.0
 49
0.0
 49
0.0
 49
0.0208333333333333
 49
0.0
 49
0.0
 49
0.0
 49
0.0
 49
1.0
 49
0.0
 49
0.0
 49
0.0
 49
0.0
 49
1.0
175
     0
142
0.0208333333333333
142
0.0
142
0.0
142
0.0
142
0.0
142
0.0208333333333333
142
0.0
142
0.0
142
0.0
142
0.0
142
1.0
142
0.0
142
0.0
142
0.0
142
0.0
142
1.0
179
     0
144
0.0208333333333333
144
0.0
144
0.0
144
0.0
144
0.0
144
0.0208333333333333
144
0.0
144
0.0
144
0.0
144
0.0
144
1.0
144
0.0
144
0.0
144
0.0
144
0.0
144
1.0
147
0.0208333333333333
147
0.0
147
0.0
147
0.0
147
0.0
147
0.0208333333333333
147
0.0
147
0.0
147
0.0
147
0.0
147
1.0
147
0.0
147
0.0
147
0.0
147
0.0
147
1.0
  0
MLEADERSTYLE
  5
5F68
102
{ACAD_REACTORS
330
5F67
102
}
330
5F67
100
AcDbMLeaderStyle
170
     2
171
     1
172
     0
 90
        2
 40
0.0
 41
0.0
173
     1
 91
-1056964608
340
5F5C
 92
       -2
290
     1
 42
0.09
291
     1
 43
0.36
  3
Standard
 44
0.18
300

342
5F57
174
     1
178
     6
175
     1
176
     0
 93
-1056964608
 45
0.18
292
     0
297
     0
 46
0.18
 94
-1056964608
 47
1.0
 49
1.0
140
1.0
293
     1
141
0.0
294
     1
177
     0
142
1.0
295
     0
296
     0
143
0.125
1001
ACAD_MLEADERVER
1070
     2
  0
MLINESTYLE
  5
5F61
102
{ACAD_REACTORS
330
5F60
102
}
330
5F60
100
AcDbMlineStyle
  2
STANDARD
 70
     0
  3

 62
   256
 51
90.0
 52
90.0
 71
     2
 49
0.5
 62
   256
  6
BYLAYER
 49
-0.5
 62
   256
  6
BYLAYER
  0
ACDBPLACEHOLDER
  5
5F09
102
{ACAD_REACTORS
330
5F08
102
}
330
5F08
  0
SCALE
  5
5F35
102
{ACAD_REACTORS
330
5F34
102
}
330
5F34
100
AcDbScale
 70
     0
300
1:1
140
1.0
141
1.0
290
     1
  0
SCALE
  5
5F36
102
{ACAD_REACTORS
330
5F34
102
}
330
5F34
100
AcDbScale
 70
     0
300
1:2
140
1.0
141
2.0
290
     0
  0
SCALE
  5
5F37
102
{ACAD_REACTORS
330
5F34
102
}
330
5F34
100
AcDbScale
 70
     0
300
1:4
140
1.0
141
4.0
290
     0
  0
SCALE
  5
5F38
102
{ACAD_REACTORS
330
5F34
102
}
330
5F34
100
AcDbScale
 70
     0
300
1:5
140
1.0
141
5.0
290
     0
  0
SCALE
  5
5F39
102
{ACAD_REACTORS
330
5F34
102
}
330
5F34
100
AcDbScale
 70
     0
300
1:8
140
1.0
141
8.0
290
     0
  0
SCALE
  5
5F3A
102
{ACAD_REACTORS
330
5F34
102
}
330
5F34
100
AcDbScale
 70
     0
300
1:10
140
1.0
141
10.0
290
     0
  0
SCALE
  5
5F3B
102
{ACAD_REACTORS
330
5F34
102
}
330
5F34
100
AcDbScale
 70
     0
300
1:16
140
1.0
141
16.0
290
     0
  0
SCALE
  5
5F3C
102
{ACAD_REACTORS
330
5F34
102
}
330
5F34
100
AcDbScale
 70
     0
300
1:20
140
1.0
141
20.0
290
     0
  0
SCALE
  5
5F3D
102
{ACAD_REACTORS
330
5F34
102
}
330
5F34
100
AcDbScale
 70
     0
300
1:30
140
1.0
141
30.0
290
     0
  0
SCALE
  5
5F3E
102
{ACAD_REACTORS
330
5F34
102
}
330
5F34
100
AcDbScale
 70
     0
300
1:40
140
1.0
141
40.0
290
     0
  0
SCALE
  5
5F3F
102
{ACAD_REACTORS
330
5F34
102
}
330
5F34
100
AcDbScale
 70
     0
300
1:50
140
1.0
141
50.0
290
     0
  0
SCALE
  5
5F40
102
{ACAD_REACTORS
330
5F34
102
}
330
5F34
100
AcDbScale
 70
     0
300
1:100
140
1.0
141
100.0
290
     0
  0
SCALE
  5
5F41
102
{ACAD_REACTORS
330
5F34
102
}
330
5F34
100
AcDbScale
 70
     0
300
2:1
140
2.0
141
1.0
290
     0
  0
SCALE
  5
5F42
102
{ACAD_REACTORS
330
5F34
102
}
330
5F34
100
AcDbScale
 70
     0
300
4:1
140
4.0
141
1.0
290
     0
  0
SCALE
  5
5F43
102
{ACAD_REACTORS
330
5F34
102
}
330
5F34
100
AcDbScale
 70
     0
300
8:1
140
8.0
141
1.0
290
     0
  0
SCALE
  5
5F44
102
{ACAD_REACTORS
330
5F34
102
}
330
5F34
100
AcDbScale
 70
     0
300
10:1
140
10.0
141
1.0
290
     0
  0
SCALE
  5
5F45
102
{ACAD_REACTORS
330
5F34
102
}
330
5F34
100
AcDbScale
 70
     0
300
100:1
140
100.0
141
1.0
290
     0
  0
SCALE
  5
5F46
102
{ACAD_REACTORS
330
5F34
102
}
330
5F34
100
AcDbScale
 70
     0
300
1/128" = 1'-0"
140
0.0078125
141
12.0
290
     0
  0
SCALE
  5
5F47
102
{ACAD_REACTORS
330
5F34
102
}
330
5F34
100
AcDbScale
 70
     0
300
1/64" = 1'-0"
140
0.015625
141
12.0
290
     0
  0
SCALE
  5
5F48
102
{ACAD_REACTORS
330
5F34
102
}
330
5F34
100
AcDbScale
 70
     0
300
1/32" = 1'-0"
140
0.03125
141
12.0
290
     0
  0
SCALE
  5
5F49
102
{ACAD_REACTORS
330
5F34
102
}
330
5F34
100
AcDbScale
 70
     0
300
1/16" = 1'-0"
140
0.0625
141
12.0
290
     0
  0
SCALE
  5
5F4A
102
{ACAD_REACTORS
330
5F34
102
}
330
5F34
100
AcDbScale
 70
     0
300
3/32" = 1'-0"
140
0.09375
141
12.0
290
     0
  0
SCALE
  5
5F4B
102
{ACAD_REACTORS
330
5F34
102
}
330
5F34
100
AcDbScale
 70
     0
300
1/8" = 1'-0"
140
0.125
141
12.0
290
     0
  0
SCALE
  5
5F4C
102
{ACAD_REACTORS
330
5F34
102
}
330
5F34
100
AcDbScale
 70
     0
300
3/16" = 1'-0"
140
0.1875
141
12.0
290
     0
  0
SCALE
  5
5F4D
102
{ACAD_REACTORS
330
5F34
102
}
330
5F34
100
AcDbScale
 70
     0
300
1/4" = 1'-0"
140
0.25
141
12.0
290
     0
  0
SCALE
  5
5F4E
102
{ACAD_REACTORS
330
5F34
102
}
330
5F34
100
AcDbScale
 70
     0
300
3/8" = 1'-0"
140
0.375
141
12.0
290
     0
  0
SCALE
  5
5F4F
102
{ACAD_REACTORS
330
5F34
102
}
330
5F34
100
AcDbScale
 70
     0
300
1/2" = 1'-0"
140
0.5
141
12.0
290
     0
  0
SCALE
  5
5F50
102
{ACAD_REACTORS
330
5F34
102
}
330
5F34
100
AcDbScale
 70
     0
300
3/4" = 1'-0"
140
0.75
141
12.0
290
     0
  0
SCALE
  5
5F51
102
{ACAD_REACTORS
330
5F34
102
}
330
5F34
100
AcDbScale
 70
     0
300
1" = 1'-0"
140
1.0
141
12.0
290
     0
  0
SCALE
  5
5F52
102
{ACAD_REACTORS
330
5F34
102
}
330
5F34
100
AcDbScale
 70
     0
300
1-1/2" = 1'-0"
140
1.5
141
12.0
290
     0
  0
SCALE
  5
5F53
102
{ACAD_REACTORS
330
5F34
102
}
330
5F34
100
AcDbScale
 70
     0
300
3" = 1'-0"
140
3.0
141
12.0
290
     0
  0
SCALE
  5
5F54
102
{ACAD_REACTORS
330
5F34
102
}
330
5F34
100
AcDbScale
 70
     0
300
6" = 1'-0"
140
6.0
141
12.0
290
     0
  0
SCALE
  5
5F55
102
{ACAD_REACTORS
330
5F34
102
}
330
5F34
100
AcDbScale
 70
     0
300
1'-0" = 1'-0"
140
12.0
141
12.0
290
     0
  0
TABLESTYLE
  5
5F66
102
{ACAD_XDICTIONARY
360
6F6E
102
}
102
{ACAD_REACTORS
330
5F65
102
}
330
5F65
100
AcDbTableStyle
  3
Standard
 70
     0
 71
     0
 40
0.06
 41
0.06
280
     0
281
     0
  7
STANDARD
140
0.18
170
     2
 62
     0
 63
     7
283
     0
274
    -2
284
     1
 64
     0
275
    -2
285
     1
 65
     0
276
    -2
286
     1
 66
     0
277
    -2
287
     1
 67
     0
278
    -2
288
     1
 68
     0
279
    -2
289
     1
 69
     0
  7
STANDARD
140
0.25
170
     5
 62
     0
 63
     7
283
     0
274
    -2
284
     1
 64
     0
275
    -2
285
     1
 65
     0
276
    -2
286
     1
 66
     0
277
    -2
287
     1
 67
     0
278
    -2
288
     1
 68
     0
279
    -2
289
     1
 69
     0
  7
STANDARD
140
0.18
170
     5
 62
     0
 63
     7
283
     0
274
    -2
284
     1
 64
     0
275
    -2
285
     1
 65
     0
276
    -2
286
     1
 66
     0
277
    -2
287
     1
 67
     0
278
    -2
288
     1
 68
     0
279
    -2
289
     1
 69
     0
  0
VISUALSTYLE
  5
5F29
102
{ACAD_REACTORS
330
5F23
102
}
330
5F23
100
AcDbVisualStyle
  2
2dWireframe
 70
     4
 71
     0
 72
     2
 73
     0
 90
        0
 40
-0.6
 41
-30.0
 62
     5
 63
     7
 74
     1
 91
        4
 64
     7
 65
   257
 75
     1
175
     1
 42
1.0
 92
        0
 66
   257
 43
1.0
 76
     1
 77
     6
 78
     2
 67
     7
 79
     5
170
     0
171
     0
290
     0
174
     0
 93
        1
 44
0.0
173
     0
291
     0
 45
0.0
1001
ACAD
1000
AcDbSavedByObjectVersion
1070
     0
1000
AcDbSavedByObjectVersion
1070
     0
1000
AcDbSavedByObjectVersion
1070
     0
1000
AcDbSavedByObjectVersion
1070
     0
1000
AcDbSavedByObjectVersion
1070
     0
1000
AcDbSavedByObjectVersion
1070
     0
1000
AcDbSavedByObjectVersion
1070
     0
  0
VISUALSTYLE
  5
5F2B
102
{ACAD_REACTORS
330
5F23
102
}
330
5F23
100
AcDbVisualStyle
  2
3D Hidden
 70
     6
 71
     1
 72
     2
 73
     2
 90
        0
 40
-0.6
 41
-30.0
 62
     5
 63
     7
 74
     2
 91
        2
 64
     7
 65
   257
 75
     2
175
     1
 42
40.0
 92
        0
 66
   257
 43
1.0
 76
     1
 77
     6
 78
     2
 67
     7
 79
     3
170
     0
171
     0
290
     0
174
     0
 93
        1
 44
0.0
173
     0
291
     0
 45
0.0
1001
ACAD
1000
AcDbSavedByObjectVersion
1070
     0
1000
AcDbSavedByObjectVersion
1070
     0
1000
AcDbSavedByObjectVersion
1070
     0
1000
AcDbSavedByObjectVersion
1070
     0
1000
AcDbSavedByObjectVersion
1070
     0
1000
AcDbSavedByObjectVersion
1070
     0
1000
AcDbSavedByObjectVersion
1070
     0
  0
VISUALSTYLE
  5
5F2A
102
{ACAD_REACTORS
330
5F23
102
}
330
5F23
100
AcDbVisualStyle
  2
3dWireframe
 70
     5
 71
     0
 72
     2
 73
     0
 90
        0
 40
-0.6
 41
-30.0
 62
     5
 63
     7
 74
     1
 91
        4
 64
     7
 65
   257
 75
     1
175
     1
 42
1.0
 92
        0
 66
   257
 43
1.0
 76
     1
 77
     6
 78
     2
 67
     7
 79
     5
170
     0
171
     0
290
     0
174
     0
 93
        1
 44
0.0
173
     0
291
     0
 45
0.0
1001
ACAD
1000
AcDbSavedByObjectVersion
1070
     0
1000
AcDbSavedByObjectVersion
1070
     0
1000
AcDbSavedByObjectVersion
1070
     0
1000
AcDbSavedByObjectVersion
1070
     0
1000
AcDbSavedByObjectVersion
1070
     0
1000
AcDbSavedByObjectVersion
1070
     0
1000
AcDbSavedByObjectVersion
1070
     0
  0
VISUALSTYLE
  5
5F28
102
{ACAD_REACTORS
330
5F23
102
}
330
5F23
100
AcDbVisualStyle
  2
Basic
 70
     7
 71
     1
 72
     0
 73
     1
 90
        0
 40
-0.6
 41
-30.0
 62
     5
 63
     7
 74
     0
 91
        4
 64
     7
 65
   257
 75
     1
175
     1
 42
1.0
 92
        8
 66
     7
 43
1.0
 76
     1
 77
     6
 78
     2
 67
     7
 79
     5
170
     0
171
     0
290
     0
174
     0
 93
        1
 44
0.0
173
     0
291
     1
 45
0.0
1001
ACAD
1000
AcDbSavedByObjectVersion
1070
     0
1000
AcDbSavedByObjectVersion
1070
     0
1000
AcDbSavedByObjectVersion
1070
     0
1000
AcDbSavedByObjectVersion
1070
     0
1000
AcDbSavedByObjectVersion
1070
     0
1000
AcDbSavedByObjectVersion
1070
     0
1000
AcDbSavedByObjectVersion
1070
     0
  0
VISUALSTYLE
  5
5F2F
102
{ACAD_REACTORS
330
5F23
102
}
330
5F23
100
AcDbVisualStyle
  2
Brighten
 70
    12
 71
     2
 72
     2
 73
     0
 90
        0
 40
-0.6
 41
-30.0
 62
     5
 63
     7
 74
     1
 91
        4
 64
     7
 65
   257
 75
     1
175
     1
 42
1.0
 92
        8
 66
     7
 43
1.0
 76
     1
 77
     6
 78
     2
 67
     7
 79
     5
170
     0
171
     0
290
     0
174
     0
 93
        1
 44
50.0
173
     0
291
     1
 45
0.0
1001
ACAD
1000
AcDbSavedByObjectVersion
1070
     0
1000
AcDbSavedByObjectVersion
1070
     0
1000
AcDbSavedByObjectVersion
1070
     0
1000
AcDbSavedByObjectVersion
1070
     0
1000
AcDbSavedByObjectVersion
1070
     0
1000
AcDbSavedByObjectVersion
1070
     0
1000
AcDbSavedByObjectVersion
1070
     0
  0
VISUALSTYLE
  5
5F33
102
{ACAD_REACTORS
330
5F23
102
}
330
5F23
100
AcDbVisualStyle
  2
ColorChange
 70
    16
 71
     2
 72
     2
 73
     3
 90
        0
 40
-0.6
 41
-30.0
 62
     5
 63
     8
 74
     1
 91
        4
 64
     7
 65
   257
 75
     1
175
     1
 42
1.0
 92
        8
 66
     8
 43
1.0
 76
     1
 77
     6
 78
     2
 67
     7
 79
     5
170
     0
171
     0
290
     0
174
     0
 93
        1
 44
0.0
173
     0
291
     1
 45
0.0
1001
ACAD
1000
AcDbSavedByObjectVersion
1070
     0
1000
AcDbSavedByObjectVersion
1070
     0
1000
AcDbSavedByObjectVersion
1070
     0
1000
AcDbSavedByObjectVersion
1070
     0
1000
AcDbSavedByObjectVersion
1070
     0
1000
AcDbSavedByObjectVersion
1070
     0
1000
AcDbSavedByObjectVersion
1070
     0
  0
VISUALSTYLE
  5
5F2C
102
{ACAD_REACTORS
330
5F23
102
}
330
5F23
100
AcDbVisualStyle
  2
Conceptual
 70
     9
 71
     3
 72
     2
 73
     0
 90
        0
 40
-0.6
 41
-30.0
 62
     5
 63
     7
 74
     2
 91
        2
 64
     7
 65
   257
 75
     1
175
     1
 42
40.0
 92
        8
 66
     7
 43
1.0
 76
     1
 77
     6
 78
     2
 67
     7
 79
     3
170
     0
171
     0
290
     0
174
     0
 93
        1
 44
0.0
173
     0
291
     0
 45
0.0
1001
ACAD
1000
AcDbSavedByObjectVersion
1070
     0
1000
AcDbSavedByObjectVersion
1070
     0
1000
AcDbSavedByObjectVersion
1070
     0
1000
AcDbSavedByObjectVersion
1070
     0
1000
AcDbSavedByObjectVersion
1070
     0
1000
AcDbSavedByObjectVersion
1070
     0
1000
AcDbSavedByObjectVersion
1070
     0
  0
VISUALSTYLE
  5
5F2E
102
{ACAD_REACTORS
330
5F23
102
}
330
5F23
100
AcDbVisualStyle
  2
Dim
 70
    11
 71
     2
 72
     2
 73
     0
 90
        0
 40
-0.6
 41
-30.0
 62
     5
 63
     7
 74
     1
 91
        4
 64
     7
 65
   257
 75
     1
175
     1
 42
1.0
 92
        8
 66
     7
 43
1.0
 76
     1
 77
     6
 78
     2
 67
     7
 79
     5
170
     0
171
     0
290
     0
174
     0
 93
        1
 44
-50.0
173
     0
291
     1
 45
0.0
1001
ACAD
1000
AcDbSavedByObjectVersion
1070
     0
1000
AcDbSavedByObjectVersion
1070
     0
1000
AcDbSavedByObjectVersion
1070
     0
1000
AcDbSavedByObjectVersion
1070
     0
1000
AcDbSavedByObjectVersion
1070
     0
1000
AcDbSavedByObjectVersion
1070
     0
1000
AcDbSavedByObjectVersion
1070
     0
  0
VISUALSTYLE
  5
5F32
102
{ACAD_REACTORS
330
5F23
102
}
330
5F23
100
AcDbVisualStyle
  2
Facepattern
 70
    15
 71
     2
 72
     2
 73
     0
 90
        0
 40
-0.6
 41
-30.0
 62
     5
 63
     7
 74
     1
 91
        4
 64
     7
 65
   257
 75
     1
175
     1
 42
1.0
 92
        8
 66
     7
 43
1.0
 76
     1
 77
     6
 78
     2
 67
     7
 79
     5
170
     0
171
     0
290
     0
174
     0
 93
        1
 44
0.0
173
     0
291
     1
 45
0.0
1001
ACAD
1000
AcDbSavedByObjectVersion
1070
     0
1000
AcDbSavedByObjectVersion
1070
     0
1000
AcDbSavedByObjectVersion
1070
     0
1000
AcDbSavedByObjectVersion
1070
     0
1000
AcDbSavedByObjectVersion
1070
     0
1000
AcDbSavedByObjectVersion
1070
     0
1000
AcDbSavedByObjectVersion
1070
     0
  0
VISUALSTYLE
  5
5F24
102
{ACAD_REACTORS
330
5F23
102
}
330
5F23
100
AcDbVisualStyle
  2
Flat
 70
     0
 71
     2
 72
     1
 73
     1
 90
        2
 40
-0.6
 41
30.0
 62
     5
 63
     7
 74
     0
 91
        4
 64
     7
 65
   257
 75
     1
175
     1
 42
1.0
 92
        8
 66
     7
 43
1.0
 76
     1
 77
     6
 78
     2
 67
     7
 79
     5
170
     0
171
     0
290
     0
174
     0
 93
       13
 44
0.0
173
     0
291
     1
 45
0.0
1001
ACAD
1000
AcDbSavedByObjectVersion
1070
     0
1000
AcDbSavedByObjectVersion
1070
     0
1000
AcDbSavedByObjectVersion
1070
     0
1000
AcDbSavedByObjectVersion
1070
     0
1000
AcDbSavedByObjectVersion
1070
     0
1000
AcDbSavedByObjectVersion
1070
     0
1000
AcDbSavedByObjectVersion
1070
     0
  0
VISUALSTYLE
  5
5F25
102
{ACAD_REACTORS
330
5F23
102
}
330
5F23
100
AcDbVisualStyle
  2
FlatWithEdges
 70
     1
 71
     2
 72
     1
 73
     1
 90
        2
 40
-0.6
 41
30.0
 62
     5
 63
     7
 74
     1
 91
        4
 64
     7
 65
   257
 75
     1
175
     1
 42
1.0
 92
        0
 66
   257
 43
1.0
 76
     1
 77
     6
 78
     2
 67
     7
 79
     5
170
     0
171
     0
290
     0
174
     0
 93
       13
 44
0.0
173
     0
291
     1
 45
0.0
1001
ACAD
1000
AcDbSavedByObjectVersion
1070
     0
1000
AcDbSavedByObjectVersion
1070
     0
1000
AcDbSavedByObjectVersion
1070
     0
1000
AcDbSavedByObjectVersion
1070
     0
1000
AcDbSavedByObjectVersion
1070
     0
1000
AcDbSavedByObjectVersion
1070
     0
1000
AcDbSavedByObjectVersion
1070
     0
  0
VISUALSTYLE
  5
5F26
102
{ACAD_REACTORS
330
5F23
102
}
330
5F23
100
AcDbVisualStyle
  2
Gouraud
 70
     2
 71
     2
 72
     2
 73
     1
 90
        2
 40
-0.6
 41
30.0
 62
     5
 63
     7
 74
     0
 91
        4
 64
     7
 65
   257
 75
     1
175
     1
 42
1.0
 92
        0
 66
     7
 43
1.0
 76
     1
 77
     6
 78
     2
 67
     7
 79
     5
170
     0
171
     0
290
     0
174
     0
 93
       13
 44
0.0
173
     0
291
     1
 45
0.0
1001
ACAD
1000
AcDbSavedByObjectVersion
1070
     0
1000
AcDbSavedByObjectVersion
1070
     0
1000
AcDbSavedByObjectVersion
1070
     0
1000
AcDbSavedByObjectVersion
1070
     0
1000
AcDbSavedByObjectVersion
1070
     0
1000
AcDbSavedByObjectVersion
1070
     0
1000
AcDbSavedByObjectVersion
1070
     0
  0
VISUALSTYLE
  5
5F27
102
{ACAD_REACTORS
330
5F23
102
}
330
5F23
100
AcDbVisualStyle
  2
GouraudWithEdges
 70
     3
 71
     2
 72
     2
 73
     1
 90
        2
 40
-0.6
 41
30.0
 62
     5
 63
     7
 74
     1
 91
        4
 64
     7
 65
   257
 75
     1
175
     1
 42
1.0
 92
        0
 66
   257
 43
1.0
 76
     1
 77
     6
 78
     2
 67
     7
 79
     5
170
     0
171
     0
290
     0
174
     0
 93
       13
 44
0.0
173
     0
291
     1
 45
0.0
1001
ACAD
1000
AcDbSavedByObjectVersion
1070
     0
1000
AcDbSavedByObjectVersion
1070
     0
1000
AcDbSavedByObjectVersion
1070
     0
1000
AcDbSavedByObjectVersion
1070
     0
1000
AcDbSavedByObjectVersion
1070
     0
1000
AcDbSavedByObjectVersion
1070
     0
1000
AcDbSavedByObjectVersion
1070
     0
  0
VISUALSTYLE
  5
5F31
102
{ACAD_REACTORS
330
5F23
102
}
330
5F23
100
AcDbVisualStyle
  2
Linepattern
 70
    14
 71
     2
 72
     2
 73
     0
 90
        0
 40
-0.6
 41
-30.0
 62
     5
 63
     7
 74
     1
 91
        4
 64
     7
 65
   257
 75
     7
175
     7
 42
1.0
 92
        8
 66
     7
 43
1.0
 76
     1
 77
     6
 78
     2
 67
     7
 79
     5
170
     0
171
     0
290
     0
174
     0
 93
        1
 44
0.0
173
     0
291
     1
 45
0.0
1001
ACAD
1000
AcDbSavedByObjectVersion
1070
     0
1000
AcDbSavedByObjectVersion
1070
     0
1000
AcDbSavedByObjectVersion
1070
     0
1000
AcDbSavedByObjectVersion
1070
     0
1000
AcDbSavedByObjectVersion
1070
     0
1000
AcDbSavedByObjectVersion
1070
     0
1000
AcDbSavedByObjectVersion
1070
     0
  0
VISUALSTYLE
  5
5F2D
102
{ACAD_REACTORS
330
5F23
102
}
330
5F23
100
AcDbVisualStyle
  2
Realistic
 70
     8
 71
     2
 72
     2
 73
     0
 90
        0
 40
-0.6
 41
-30.0
 62
     5
 63
     7
 74
     1
 91
        0
 64
     7
 65
   257
 75
     1
175
     1
 42
1.0
 92
        8
 66
     8
 43
1.0
 76
     1
 77
     6
 78
     2
 67
     7
 79
     5
170
     0
171
     0
290
     0
174
     0
 93
       13
 44
0.0
173
     0
291
     0
 45
0.0
1001
ACAD
1000
AcDbSavedByObjectVersion
1070
     0
1000
AcDbSavedByObjectVersion
1070
     0
1000
AcDbSavedByObjectVersion
1070
     0
1000
AcDbSavedByObjectVersion
1070
     0
1000
AcDbSavedByObjectVersion
1070
     0
1000
AcDbSavedByObjectVersion
1070
     0
1000
AcDbSavedByObjectVersion
1070
     0
  0
VISUALSTYLE
  5
5F30
102
{ACAD_REACTORS
330
5F23
102
}
330
5F23
100
AcDbVisualStyle
  2
Thicken
 70
    13
 71
     2
 72
     2
 73
     0
 90
        0
 40
-0.6
 41
-30.0
 62
     5
 63
     7
 74
     1
 91
        4
 64
     7
 65
   257
 75
     1
175
     1
 42
1.0
 92
       12
 66
     7
 43
1.0
 76
     1
 77
     6
 78
     2
 67
     7
 79
     5
170
     0
171
     0
290
     0
174
     0
 93
        1
 44
0.0
173
     0
291
     1
 45
0.0
1001
ACAD
1000
AcDbSavedByObjectVersion
1070
     0
1000
AcDbSavedByObjectVersion
1070
     0
1000
AcDbSavedByObjectVersion
1070
     0
1000
AcDbSavedByObjectVersion
1070
     0
1000
AcDbSavedByObjectVersion
1070
     0
1000
AcDbSavedByObjectVersion
1070
     0
1000
AcDbSavedByObjectVersion
1070
     0
  0
DICTIONARYVAR
  5
6105
102
{ACAD_REACTORS
330
6102
102
}
330
6102
100
DictionaryVariables
280
     0
  1
1:1
  0
DICTIONARYVAR
  5
6104
102
{ACAD_REACTORS
330
6102
102
}
330
6102
100
DictionaryVariables
280
     0
  1
STANDARD
  0
DICTIONARYVAR
  5
6103
102
{ACAD_REACTORS
330
6102
102
}
330
6102
100
DictionaryVariables
280
     0
  1
STANDARD
  0
DICTIONARYVAR
  5
6108
102
{ACAD_REACTORS
330
6102
102
}
330
6102
100
DictionaryVariables
280
     0
  1
1
  0
DICTIONARYVAR
  5
6107
102
{ACAD_REACTORS
330
6102
102
}
330
6102
100
DictionaryVariables
280
     0
  1
0
  0
DICTIONARYVAR
  5
6106
102
{ACAD_REACTORS
330
6102
102
}
330
6102
100
DictionaryVariables
280
     0
  1
127
  0
VLO-VL
  5
60F3
102
{ACAD_REACTORS
330
60F2
102
}
330
60F2
100
vlo_VL
 90
   -64512
 91
       12
 92
        1
 40
2.5
300
(&VLO-R . 0)
  0
DICTIONARY
  5
9934
330
5F71
100
AcDbDictionary
280
     1
281
     1
  3
ACAD_XREC_ROUNDTRIP
360
9935
  0
DICTIONARY
  5
9932
330
5F6D
100
AcDbDictionary
280
     1
281
     1
  3
ACAD_XREC_ROUNDTRIP
360
9933
  0
DICTIONARY
  5
5F14
330
5F13
100
AcDbDictionary
280
     1
281
     1
  3
ACAD_XREC_ROUNDTRIP
360
6F73
  3
BUMPTILE
360
5F16
  3
DIFFUSETILE
360
5F15
  3
OPACITYTILE
360
5F19
  3
REFLECTIONTILE
360
5F18
  3
REFRACTIONTILE
360
5F1A
  3
SPECULARTILE
360
5F17
  0
DICTIONARY
  5
5F0C
330
5F0B
100
AcDbDictionary
280
     1
281
     1
  3
ACAD_XREC_ROUNDTRIP
360
6F72
  3
BUMPTILE
360
5F0E
  3
DIFFUSETILE
360
5F0D
  3
OPACITYTILE
360
5F11
  3
REFLECTIONTILE
360
5F10
  3
REFRACTIONTILE
360
5F12
  3
SPECULARTILE
360
5F0F
  0
DICTIONARY
  5
5F1C
330
5F1B
100
AcDbDictionary
280
     1
281
     1
  3
ACAD_XREC_ROUNDTRIP
360
6F74
  3
BUMPTILE
360
5F1E
  3
DIFFUSETILE
360
5F1D
  3
OPACITYTILE
360
5F21
  3
REFLECTIONTILE
360
5F20
  3
REFRACTIONTILE
360
5F22
  3
SPECULARTILE
360
5F1F
  0
DICTIONARY
  5
6F6E
330
5F66
100
AcDbDictionary
280
     1
281
     1
  3
ACAD_ROUNDTRIP_2008_TABLESTYLE_CELLSTYLEMAP
360
9929
  3
ACAD_XREC_ROUNDTRIP
360
9931
  0
XRECORD
  5
9935
102
{ACAD_REACTORS
330
9934
102
}
330
9934
100
AcDbXrecord
280
     1
102
SHADEPLOT
 70
     0
102
SHADEPLOTRESLEVEL
 70
     2
102
SHADEPLOTCUSTOMDPI
 70
   300
  0
XRECORD
  5
9933
102
{ACAD_REACTORS
330
9932
102
}
330
9932
100
AcDbXrecord
280
     1
102
SHADEPLOT
 70
     0
102
SHADEPLOTRESLEVEL
 70
     2
102
SHADEPLOTCUSTOMDPI
 70
   300
  0
XRECORD
  5
6F73
102
{ACAD_REACTORS
330
5F14
102
}
330
5F14
100
AcDbXrecord
280
     1
102
MATERIAL
148
0.0
149
0.0
149
0.0
 93
        0
 94
      127
282
     0
 72
     0
 77
     0
171
     0
175
     0
179
     0
273
     0
  0
XRECORD
  5
5F16
102
{ACAD_REACTORS
330
5F14
102
}
330
5F14
100
AcDbXrecord
280
     1
270
     1
271
     1
  0
XRECORD
  5
5F15
102
{ACAD_REACTORS
330
5F14
102
}
330
5F14
100
AcDbXrecord
280
     1
270
     1
271
     1
  0
XRECORD
  5
5F19
102
{ACAD_REACTORS
330
5F14
102
}
330
5F14
100
AcDbXrecord
280
     1
270
     1
271
     1
  0
XRECORD
  5
5F18
102
{ACAD_REACTORS
330
5F14
102
}
330
5F14
100
AcDbXrecord
280
     1
270
     1
271
     1
  0
XRECORD
  5
5F1A
102
{ACAD_REACTORS
330
5F14
102
}
330
5F14
100
AcDbXrecord
280
     1
270
     1
271
     1
  0
XRECORD
  5
5F17
102
{ACAD_REACTORS
330
5F14
102
}
330
5F14
100
AcDbXrecord
280
     1
270
     1
271
     1
  0
XRECORD
  5
6F72
102
{ACAD_REACTORS
330
5F0C
102
}
330
5F0C
100
AcDbXrecord
280
     1
102
MATERIAL
148
0.0
149
0.0
149
0.0
 93
        0
 94
      127
282
     0
 72
     0
 77
     0
171
     0
175
     0
179
     0
273
     0
  0
XRECORD
  5
5F0E
102
{ACAD_REACTORS
330
5F0C
102
}
330
5F0C
100
AcDbXrecord
280
     1
270
     1
271
     1
  0
XRECORD
  5
5F0D
102
{ACAD_REACTORS
330
5F0C
102
}
330
5F0C
100
AcDbXrecord
280
     1
270
     1
271
     1
  0
XRECORD
  5
5F11
102
{ACAD_REACTORS
330
5F0C
102
}
330
5F0C
100
AcDbXrecord
280
     1
270
     1
271
     1
  0
XRECORD
  5
5F10
102
{ACAD_REACTORS
330
5F0C
102
}
330
5F0C
100
AcDbXrecord
280
     1
270
     1
271
     1
  0
XRECORD
  5
5F12
102
{ACAD_REACTORS
330
5F0C
102
}
330
5F0C
100
AcDbXrecord
280
     1
270
     1
271
     1
  0
XRECORD
  5
5F0F
102
{ACAD_REACTORS
330
5F0C
102
}
330
5F0C
100
AcDbXrecord
280
     1
270
     1
271
     1
  0
XRECORD
  5
6F74
102
{ACAD_REACTORS
330
5F1C
102
}
330
5F1C
100
AcDbXrecord
280
     1
102
MATERIAL
148
0.0
149
0.0
149
0.0
 93
        0
 94
      127
282
     0
 72
     0
 77
     0
171
     0
175
     0
179
     0
273
     0
  0
XRECORD
  5
5F1E
102
{ACAD_REACTORS
330
5F1C
102
}
330
5F1C
100
AcDbXrecord
280
     1
270
     1
271
     1
  0
XRECORD
  5
5F1D
102
{ACAD_REACTORS
330
5F1C
102
}
330
5F1C
100
AcDbXrecord
280
     1
270
     1
271
     1
  0
XRECORD
  5
5F21
102
{ACAD_REACTORS
330
5F1C
102
}
330
5F1C
100
AcDbXrecord
280
     1
270
     1
271
     1
  0
XRECORD
  5
5F20
102
{ACAD_REACTORS
330
5F1C
102
}
330
5F1C
100
AcDbXrecord
280
     1
270
     1
271
     1
  0
XRECORD
  5
5F22
102
{ACAD_REACTORS
330
5F1C
102
}
330
5F1C
100
AcDbXrecord
280
     1
270
     1
271
     1
  0
XRECORD
  5
5F1F
102
{ACAD_REACTORS
330
5F1C
102
}
330
5F1C
100
AcDbXrecord
280
     1
270
     1
271
     1
  0
CELLSTYLEMAP
  5
9929
102
{ACAD_REACTORS
330
6F6E
102
}
330
6F6E
100
AcDbCellStyleMap
 90
        3
300
CELLSTYLE
  1
TABLEFORMAT_BEGIN
 90
        5
170
     1
 91
        0
 92
    32768
 62
   257
 93
        1
300
CONTENTFORMAT
  1
CONTENTFORMAT_BEGIN
 90
        0
 91
        0
 92
      512
 93
        0
300

 40
0.0
140
1.0
 94
        5
 62
     0
340
5F57
144
0.25
309
CONTENTFORMAT_END
171
     1
301
MARGIN
  1
CELLMARGIN_BEGIN
 40
0.06
 40
0.06
 40
0.06
 40
0.06
 40
0.18
 40
0.18
309
CELLMARGIN_END
 94
        6
 95
        1
302
GRIDFORMAT
  1
GRIDFORMAT_BEGIN
 90
        0
 91
        1
 62
     0
 92
       -2
340
0
 93
        0
 40
0.045
309
GRIDFORMAT_END
 95
        2
302
GRIDFORMAT
  1
GRIDFORMAT_BEGIN
 90
        0
 91
        1
 62
     0
 92
       -2
340
0
 93
        0
 40
0.045
309
GRIDFORMAT_END
 95
        4
302
GRIDFORMAT
  1
GRIDFORMAT_BEGIN
 90
        0
 91
        1
 62
     0
 92
       -2
340
0
 93
        0
 40
0.045
309
GRIDFORMAT_END
 95
        8
302
GRIDFORMAT
  1
GRIDFORMAT_BEGIN
 90
        0
 91
        1
 62
     0
 92
       -2
340
0
 93
        0
 40
0.045
309
GRIDFORMAT_END
 95
       16
302
GRIDFORMAT
  1
GRIDFORMAT_BEGIN
 90
        0
 91
        1
 62
     0
 92
       -2
340
0
 93
        0
 40
0.045
309
GRIDFORMAT_END
 95
       32
302
GRIDFORMAT
  1
GRIDFORMAT_BEGIN
 90
        0
 91
        1
 62
     0
 92
       -2
340
0
 93
        0
 40
0.045
309
GRIDFORMAT_END
309
TABLEFORMAT_END
  1
CELLSTYLE_BEGIN
 90
        1
 91
        1
300
_TITLE
309
CELLSTYLE_END
300
CELLSTYLE
  1
TABLEFORMAT_BEGIN
 90
        5
170
     1
 91
        0
 92
        0
 62
   257
 93
        1
300
CONTENTFORMAT
  1
CONTENTFORMAT_BEGIN
 90
        0
 91
        0
 92
      512
 93
        0
300

 40
0.0
140
1.0
 94
        5
 62
     0
340
5F57
144
0.18
309
CONTENTFORMAT_END
171
     1
301
MARGIN
  1
CELLMARGIN_BEGIN
 40
0.06
 40
0.06
 40
0.06
 40
0.06
 40
0.18
 40
0.18
309
CELLMARGIN_END
 94
        6
 95
        1
302
GRIDFORMAT
  1
GRIDFORMAT_BEGIN
 90
        0
 91
        1
 62
     0
 92
       -2
340
0
 93
        0
 40
0.045
309
GRIDFORMAT_END
 95
        2
302
GRIDFORMAT
  1
GRIDFORMAT_BEGIN
 90
        0
 91
        1
 62
     0
 92
       -2
340
0
 93
        0
 40
0.045
309
GRIDFORMAT_END
 95
        4
302
GRIDFORMAT
  1
GRIDFORMAT_BEGIN
 90
        0
 91
        1
 62
     0
 92
       -2
340
0
 93
        0
 40
0.045
309
GRIDFORMAT_END
 95
        8
302
GRIDFORMAT
  1
GRIDFORMAT_BEGIN
 90
        0
 91
        1
 62
     0
 92
       -2
340
0
 93
        0
 40
0.045
309
GRIDFORMAT_END
 95
       16
302
GRIDFORMAT
  1
GRIDFORMAT_BEGIN
 90
        0
 91
        1
 62
     0
 92
       -2
340
0
 93
        0
 40
0.045
309
GRIDFORMAT_END
 95
       32
302
GRIDFORMAT
  1
GRIDFORMAT_BEGIN
 90
        0
 91
        1
 62
     0
 92
       -2
340
0
 93
        0
 40
0.045
309
GRIDFORMAT_END
309
TABLEFORMAT_END
  1
CELLSTYLE_BEGIN
 90
        2
 91
        1
300
_HEADER
309
CELLSTYLE_END
300
CELLSTYLE
  1
TABLEFORMAT_BEGIN
 90
        5
170
     1
 91
        0
 92
        0
 62
   257
 93
        1
300
CONTENTFORMAT
  1
CONTENTFORMAT_BEGIN
 90
        0
 91
        0
 92
      512
 93
        0
300

 40
0.0
140
1.0
 94
        2
 62
     0
340
5F57
144
0.18
309
CONTENTFORMAT_END
171
     1
301
MARGIN
  1
CELLMARGIN_BEGIN
 40
0.06
 40
0.06
 40
0.06
 40
0.06
 40
0.18
 40
0.18
309
CELLMARGIN_END
 94
        6
 95
        1
302
GRIDFORMAT
  1
GRIDFORMAT_BEGIN
 90
        0
 91
        1
 62
     0
 92
       -2
340
0
 93
        0
 40
0.045
309
GRIDFORMAT_END
 95
        2
302
GRIDFORMAT
  1
GRIDFORMAT_BEGIN
 90
        0
 91
        1
 62
     0
 92
       -2
340
0
 93
        0
 40
0.045
309
GRIDFORMAT_END
 95
        4
302
GRIDFORMAT
  1
GRIDFORMAT_BEGIN
 90
        0
 91
        1
 62
     0
 92
       -2
340
0
 93
        0
 40
0.045
309
GRIDFORMAT_END
 95
        8
302
GRIDFORMAT
  1
GRIDFORMAT_BEGIN
 90
        0
 91
        1
 62
     0
 92
       -2
340
0
 93
        0
 40
0.045
309
GRIDFORMAT_END
 95
       16
302
GRIDFORMAT
  1
GRIDFORMAT_BEGIN
 90
        0
 91
        1
 62
     0
 92
       -2
340
0
 93
        0
 40
0.045
309
GRIDFORMAT_END
 95
       32
302
GRIDFORMAT
  1
GRIDFORMAT_BEGIN
 90
        0
 91
        1
 62
     0
 92
       -2
340
0
 93
        0
 40
0.045
309
GRIDFORMAT_END
309
TABLEFORMAT_END
  1
CELLSTYLE_BEGIN
 90
        3
 91
        2
300
_DATA
309
CELLSTYLE_END
  0
XRECORD
  5
9931
102
{ACAD_REACTORS
330
6F6E
102
}
330
6F6E
100
AcDbXrecord
280
     1
102
ACAD_ROUNDTRIP_PRE2007_TABLESTYLE
 90
      512
 91
        0
  1

 92
      512
 93
        0
  2

 94
      512
 95
        0
  3

  0
ENDSEC
  0
EOF
